<?xml version="1.0" standalone="no"?>
<!DOCTYPE svg PUBLIC "-//W3C//DTD SVG 1.1//EN" "http://www.w3.org/Graphics/SVG/1.1/DTD/svg11.dtd" >
<svg xmlns="http://www.w3.org/2000/svg">
<metadata>Generated by IcoMoon</metadata>
<defs>
<font id="support-board" horiz-adv-x="1024">
<font-face units-per-em="1024" ascent="1024" descent="0" />
<missing-glyph horiz-adv-x="1024" />
<glyph unicode="&#x20;" horiz-adv-x="0" d="" />
<glyph unicode="&#x30;" glyph-name="plus-2" d="M974 562h-410v410c0 30-24 52-52 52s-50-22-50-52v-410h-410c-30 0-52-22-52-50s22-52 52-52h410v-410c0-28 22-50 50-50s52 22 52 50v410h410c28 0 50 24 50 52s-22 50-50 50z" />
<glyph unicode="&#x41;" glyph-name="back" d="M899.2 499.2l-6.4 6.4c-73.6 86.4-208 188.8-441.6 198.4v153.6c0 9.6-3.2 22.4-22.4 32-12.8 6.4-28.8 3.2-38.4-6.4l-377.6-313.6c-9.6-6.4-16-16-16-28.8s6.4-22.4 12.8-28.8l377.6-313.6c9.6-9.6 25.6-12.8 38.4-6.4s19.2 19.2 19.2 35.2v150.4c128 0 377.6-6.4 505.6-230.4 6.4-12.8 19.2-19.2 32-19.2 3.2 0 6.4 0 9.6 3.2 16 3.2 25.6 16 25.6 35.2 6.4 89.6-25.6 220.8-118.4 332.8zM393.6 444.8c-6.4-6.4-12.8-16-12.8-25.6v-112l-288 236.8 288 236.8v-112c0-19.2 16-35.2 35.2-35.2 345.6-3.2 467.2-204.8 512-326.4-160 150.4-377.6 150.4-512 150.4v0c-9.6 0-19.2-6.4-22.4-12.8z" />
<glyph unicode="&#x42;" glyph-name="file" d="M819.2 320v0 0c-16 9.6-32 6.4-44.8-3.2l-25.6-25.6h3.2l-35.2-38.4v188.8c0 19.2-16 35.2-35.2 35.2s-35.2-16-35.2-35.2v-188.8l-60.8 64c-12.8 12.8-38.4 12.8-51.2 0-6.4-6.4-9.6-16-9.6-22.4 0-9.6 3.2-19.2 9.6-25.6l121.6-131.2c6.4-6.4 16-9.6 25.6-9.6s19.2 3.2 25.6 9.6l121.6 131.2c12.8 16 12.8 35.2-3.2 51.2-3.2 0-3.2 0-6.4 0zM752 592v176c0 9.6-3.2 19.2-9.6 25.6l-211.2 220.8c-6.4 6.4-16 9.6-25.6 9.6h-332.8c-70.4 0-124.8-57.6-124.8-128v-630.4c0-70.4 57.6-128 124.8-128h256c57.6-86.4 153.6-137.6 252.8-137.6 166.4 0 300.8 134.4 300.8 300.8-3.2 137.6-99.2 259.2-230.4 291.2zM576 803.2c-19.2 0-35.2 16-35.2 35.2v60.8l92.8-99.2h-57.6zM678.4 70.4c-124.8 0-227.2 102.4-227.2 230.4 0 124.8 102.4 227.2 227.2 227.2s227.2-102.4 227.2-227.2c0-124.8-102.4-230.4-227.2-230.4zM576 732.8h105.6v-131.2c0 0-3.2 0-3.2 0-67.2 0-137.6-25.6-195.2-70.4h-259.2c-19.2 0-35.2-16-35.2-35.2s12.8-35.2 35.2-35.2h198.4c-6.4-12.8-12.8-22.4-19.2-35.2h-179.2c-19.2 0-35.2-12.8-35.2-35.2 0-19.2 16-35.2 35.2-35.2h156.8c-3.2-16-6.4-32-6.4-51.2 0-32 6.4-60.8 16-89.6h-224c-32 0-54.4 25.6-54.4 54.4v630.4c0 32 25.6 57.6 54.4 57.6h300.8v-115.2c3.2-60.8 51.2-108.8 108.8-108.8zM435.2 633.6h-211.2c-19.2 0-35.2-12.8-35.2-35.2 0-19.2 16-35.2 35.2-35.2h211.2c19.2 0 35.2 16 35.2 35.2 3.2 19.2-12.8 35.2-35.2 35.2z" />
<glyph unicode="&#x43;" glyph-name="check-circle" d="M512 1024c-281.6 0-512-230.4-512-512s230.4-512 512-512c281.6 0 512 230.4 512 512 0 284.8-230.4 512-512 512zM512 73.6c-243.2 0-438.4 198.4-438.4 438.4 0 243.2 198.4 438.4 438.4 438.4 243.2 0 438.4-198.4 438.4-438.4s-195.2-438.4-438.4-438.4zM688 643.2c-6.4 6.4-16 9.6-25.6 9.6-6.4 0-12.8-3.2-19.2-6.4v0l-188.8-188.8-64 64c-6.4 6.4-16 9.6-25.6 9.6s-19.2-3.2-25.6-9.6c-6.4-6.4-9.6-16-9.6-25.6s3.2-19.2 9.6-25.6l86.4-86.4c9.6-12.8 22.4-12.8 25.6-12.8 9.6 0 19.2 3.2 25.6 9.6l211.2 208c6.4 6.4 9.6 16 9.6 25.6 0 12.8-3.2 22.4-9.6 28.8z" />
<glyph unicode="&#x44;" glyph-name="reload" d="M240 809.6v0c144 131.2 348.8 140.8 499.2 28.8l-99.2-3.2c-22.4 0-35.2-19.2-35.2-35.2 3.2-19.2 19.2-35.2 35.2-35.2l185.6 6.4c19.2 3.2 35.2 19.2 35.2 38.4l-6.4 182.4c0 22.4-19.2 35.2-35.2 35.2-19.2 0-35.2-16-35.2-38.4l3.2-96c-73.6 57.6-163.2 86.4-256 92.8-124.8 6.4-246.4-35.2-336-121.6-128-115.2-179.2-288-140.8-454.4 6.4-16 19.2-25.6 35.2-25.6h9.6c19.2 6.4 28.8 25.6 25.6 41.6-32 140.8 9.6 284.8 115.2 384zM969.6 611.2v0 6.4c-6.4 19.2-25.6 28.8-44.8 25.6-9.6-3.2-16-9.6-22.4-16-6.4-9.6-6.4-19.2-3.2-25.6 35.2-140.8-9.6-288-118.4-384-70.4-67.2-166.4-102.4-265.6-102.4-86.4 0-169.6 28.8-236.8 80l99.2 9.6c19.2 3.2 35.2 19.2 32 41.6-3.2 19.2-19.2 32-38.4 32 0 0 0 0 0 0l-182.4-19.2c-22.4-3.2-35.2-19.2-32-38.4l16-182.4c3.2-19.2 19.2-32 35.2-32h6.4c9.6 0 19.2 6.4 22.4 12.8 6.4 6.4 6.4 16 6.4 22.4l-9.6 92.8c73.6-54.4 163.2-86.4 256-89.6h22.4c115.2 0 227.2 41.6 313.6 121.6 128 108.8 182.4 281.6 144 444.8z" />
<glyph unicode="&#x45;" glyph-name="help" d="M512 857.6c-102.4 0-185.6-83.2-185.6-185.6 0-19.2 16-35.2 35.2-35.2s35.2 16 35.2 35.2c0 60.8 51.2 112 112 112s112-51.2 112-112c0-38.4-32-89.6-83.2-108.8-38.4-16-67.2-51.2-67.2-92.8v-44.8c0-19.2 16-35.2 35.2-35.2s35.2 16 35.2 35.2v44.8c0 12.8 6.4 22.4 19.2 25.6 73.6 25.6 131.2 102.4 131.2 176 6.4 102.4-76.8 185.6-179.2 185.6zM512 304c-25.6 0-44.8-19.2-44.8-44.8s19.2-44.8 44.8-44.8c25.6 0 44.8 19.2 44.8 44.8s-19.2 44.8-44.8 44.8zM512 1024c-281.6 0-512-230.4-512-512s230.4-512 512-512 512 230.4 512 512-230.4 512-512 512zM512 73.6c-243.2 0-441.6 198.4-441.6 441.6s198.4 441.6 441.6 441.6c243.2 0 441.6-198.4 441.6-441.6 0-246.4-198.4-441.6-441.6-441.6z" />
<glyph unicode="&#x46;" glyph-name="clock" d="M768 550.4h-217.6v291.2c0 19.2-16 35.2-38.4 35.2s-38.4-16-38.4-35.2v-339.2l3.2-3.2v-3.2l3.2-3.2c6.4-9.6 19.2-16 32-16h256c22.4 0 38.4 16 38.4 38.4s-16 35.2-38.4 35.2zM512 1024c-281.6 0-512-230.4-512-512s230.4-512 512-512c281.6 0 512 230.4 512 512 0 284.8-230.4 512-512 512zM512 73.6c-243.2 0-438.4 198.4-438.4 438.4 0 243.2 198.4 438.4 438.4 438.4 243.2 0 438.4-198.4 438.4-438.4s-195.2-438.4-438.4-438.4z" />
<glyph unicode="&#x47;" glyph-name="next" d="M1011.2 572.8l-377.6 313.6c-12.8 9.6-28.8 9.6-38.4 3.2-12.8-6.4-19.2-19.2-19.2-32v-153.6c-240-9.6-374.4-118.4-448-204.8-92.8-112-124.8-243.2-124.8-329.6 0-16 9.6-28.8 25.6-35.2 3.2-3.2 9.6-3.2 9.6-3.2 12.8 0 25.6 9.6 32 19.2 128 224 377.6 230.4 505.6 230.4v-150.4c0-16 6.4-28.8 19.2-32 12.8-6.4 28.8-3.2 38.4 6.4l380.8 313.6c6.4 6.4 12.8 16 12.8 28.8-3.2 9.6-9.6 19.2-16 25.6zM633.6 444.8c-6.4 6.4-16 9.6-25.6 9.6-134.4 0-352 0-512-150.4 41.6 121.6 166.4 323.2 512 326.4 19.2 0 35.2 16 35.2 35.2v112l288-236.8-288-236.8v112c0 16-3.2 25.6-9.6 28.8z" />
<glyph unicode="&#x48;" glyph-name="currency" d="M553.6 816c-19.2 0-35.2-16-35.2-35.2v-48h-3.2c-67.2 0-124.8-54.4-124.8-124.8 0-67.2 54.4-124.8 124.8-124.8h80c28.8 0 51.2-25.6 51.2-54.4s-22.4-54.4-51.2-54.4h-144c-19.2 0-35.2-16-35.2-35.2s16-35.2 35.2-35.2h70.4v-51.2c0-19.2 16-35.2 35.2-35.2s35.2 16 35.2 35.2v51.2h6.4c67.2 0 121.6 54.4 121.6 124.8 0 67.2-54.4 124.8-124.8 124.8h-80c-28.8 0-54.4 25.6-54.4 54.4s25.6 51.2 54.4 51.2h140.8c19.2 0 35.2 16 35.2 35.2s-16 35.2-35.2 35.2h-64v48c-3.2 22.4-19.2 38.4-38.4 38.4zM886.4 848c-89.6 89.6-208 137.6-332.8 137.6-128 0-246.4-51.2-336-140.8-6.4-6.4-9.6-16-9.6-25.6s3.2-19.2 9.6-25.6c12.8-12.8 38.4-12.8 51.2 0 76.8 76.8 176 118.4 284.8 118.4h3.2c105.6 0 204.8-41.6 278.4-115.2 76.8-76.8 118.4-176 118.4-284.8 0-220.8-179.2-400-400-400-211.2 0-387.2 166.4-396.8 377.6l19.2-19.2c6.4-9.6 12.8-12.8 25.6-12.8s22.4 3.2 25.6 9.6c6.4 6.4 9.6 16 9.6 25.6s-3.2 19.2-9.6 25.6l-83.2 83.2c-6.4 6.4-16 9.6-25.6 9.6s-19.2-3.2-25.6-9.6l-83.2-83.2c-6.4-6.4-9.6-16-9.6-25.6s3.2-19.2 9.6-25.6c6.4-6.4 16-9.6 25.6-9.6s19.2 3.2 25.6 9.6l19.2 22.4c6.4-118.4 54.4-227.2 137.6-310.4 89.6-89.6 208-137.6 332.8-137.6s243.2 48 332.8 137.6c89.6 86.4 137.6 204.8 137.6 332.8 3.2 131.2-44.8 252.8-134.4 336z" />
<glyph unicode="&#x49;" glyph-name="language" d="M905.6 1027.2h-790.4c-64 0-118.4-51.2-118.4-118.4v-790.4c0-64 51.2-118.4 118.4-118.4h790.4c64 0 118.4 51.2 118.4 118.4v790.4c0 64-51.2 118.4-118.4 118.4zM905.6 76.8h-790.4c-25.6 0-41.6 19.2-41.6 41.6v790.4c0 25.6 19.2 41.6 41.6 41.6h790.4c25.6 0 41.6-19.2 41.6-41.6v-790.4c3.2-25.6-16-41.6-41.6-41.6zM528 800v0c-9.6 6.4-22.4 6.4-32 0v0c-9.6-6.4-19.2-16-22.4-28.8l-182.4-508.8c-6.4-19.2 3.2-38.4 22.4-48h12.8c16 0 28.8 9.6 35.2 22.4l51.2 144h201.6l51.2-144c6.4-12.8 19.2-22.4 35.2-22.4h16c19.2 9.6 25.6 28.8 19.2 48l-179.2 505.6c-9.6 16-19.2 25.6-28.8 32zM588.8 454.4h-150.4l76.8 211.2 73.6-211.2z" />
<glyph unicode="&#x4d;" glyph-name="plus" d="M984 552h-432v432c0 22-18 40-40 40s-40-18-40-40v-432h-432c-22 0-40-18-40-40s18-40 40-40h432v-432c0-22 18-40 40-40s40 18 40 40v432h432c22 0 40 18 40 40s-18 40-40 40z" />
<glyph unicode="&#x4e;" glyph-name="dislike" d="M1011.2 611.2c0 28.8-9.6 57.6-28.8 83.2 3.2 9.6 6.4 22.4 6.4 41.6 3.2 28.8-3.2 73.6-48 112 3.2 28.8-3.2 57.6-16 80-25.6 44.8-70.4 73.6-137.6 86.4-44.8 6.4-99.2 9.6-169.6 6.4-115.2 3.2-224-9.6-262.4-12.8h-6.4c-6.4 0-9.6 0-12.8 0l-44.8-6.4c-16 9.6-35.2 16-54.4 16h-128c-54.4 0-99.2-44.8-99.2-99.2v-339.2c0-54.4 44.8-96 99.2-96h128c12.8 0 25.6 3.2 35.2 6.4 9.6-16 19.2-35.2 38.4-54.4l6.4-3.2c64-51.2 140.8-233.6 166.4-300.8-3.2-32-3.2-76.8 19.2-105.6 12.8-12.8 28.8-22.4 51.2-22.4 12.8 0 76.8 3.2 115.2 54.4 35.2 51.2 38.4 121.6 6.4 214.4-19.2 57.6-25.6 86.4-25.6 105.6 6.4-3.2 16-3.2 22.4-3.2 0 0 3.2 0 3.2 0v0c12.8-3.2 51.2-9.6 96-12.8 83.2-3.2 140.8 9.6 176 44.8 54.4 48 41.6 108.8 32 134.4 22.4 19.2 28.8 44.8 32 70.4v0zM595.2 444.8c-32-28.8-28.8-83.2 6.4-198.4 22.4-67.2 25.6-115.2 6.4-140.8-12.8-16-32-22.4-41.6-22.4-3.2 9.6-3.2 28.8 0 48 0 6.4 0 12.8-3.2 19.2v3.2c-28.8 80-108.8 272-192 336-22.4 25.6-32 51.2-35.2 64 3.2 9.6 3.2 19.2 3.2 25.6v348.8h9.6c0 0 3.2 0 6.4 0 96 9.6 192 16 268.8 16h3.2c64 3.2 115.2 3.2 150.4-6.4 44.8-9.6 73.6-25.6 83.2-48 12.8-22.4 6.4-44.8 6.4-44.8-6.4-16 0-32 12.8-44.8 35.2-25.6 44.8-57.6 28.8-92.8 0 0 0 0 0 0-9.6-16-6.4-35.2 3.2-48 19.2-19.2 22.4-35.2 22.4-44.8 0-19.2-12.8-35.2-16-38.4l-3.2-3.2c-6.4-6.4-12.8-19.2-12.8-32 0 0 0-12.8 3.2-19.2 0-3.2 3.2-3.2 3.2-6.4 3.2-3.2 6.4-9.6 6.4-19.2 3.2-16 0-25.6-12.8-38.4-35.2-32-147.2-25.6-211.2-9.6v0h-3.2c-6.4 0-9.6 3.2-16 3.2s-12.8 3.2-16 3.2c-22.4 9.6-44.8 6.4-60.8-9.6zM259.2 918.4v-339.2c0-9.6-9.6-19.2-19.2-19.2h-128c-9.6 0-19.2 9.6-19.2 19.2v339.2c0 12.8 9.6 19.2 19.2 19.2h128c12.8 0 19.2-6.4 19.2-19.2zM678.4 374.4v0 0 0z" />
<glyph unicode="&#x4f;" glyph-name="like" d="M988.8 288c0 16-3.2 28.8-6.4 41.6 19.2 25.6 28.8 54.4 28.8 83.2-3.2 25.6-9.6 51.2-25.6 73.6 9.6 28.8 22.4 86.4-32 134.4-35.2 32-92.8 48-176 44.8-44.8-3.2-83.2-9.6-99.2-12.8-3.2 0-3.2 0-6.4 0-9.6 0-16-3.2-25.6-6.4 0 16 6.4 48 25.6 112 28.8 92.8 28.8 163.2-6.4 211.2-38.4 51.2-99.2 54.4-112 54.4-19.2 0-35.2-6.4-48-19.2-22.4-25.6-22.4-73.6-19.2-105.6-25.6-70.4-102.4-252.8-169.6-304l-3.2-3.2c-19.2-19.2-28.8-38.4-38.4-57.6-12.8 6.4-25.6 6.4-38.4 6.4h-128c-54.4 0-96-41.6-96-96v-342.4c0-54.4 44.8-96 96-96h128c19.2 0 35.2 6.4 54.4 16l48-6.4c0 0 6.4 0 16 0 41.6-3.2 150.4-16 265.6-12.8 12.8 0 22.4 0 35.2 0s22.4 0 32 0c44.8 0 73.6 3.2 99.2 9.6 67.2 12.8 112 41.6 137.6 86.4 12.8 22.4 16 51.2 16 80 44.8 38.4 51.2 80 48 108.8zM867.2 179.2c0 0 0 0 0 0 3.2-9.6 6.4-28.8-3.2-48-16-22.4-44.8-41.6-89.6-51.2-35.2-6.4-86.4-9.6-153.6-6.4h-3.2c-76.8 0-176 3.2-268.8 16-3.2 0-6.4 0-3.2 0h-12.8c0 0 0 0 0 3.2s0 6.4 0 9.6v342.4c0 6.4 0 16-3.2 25.6 3.2 12.8 12.8 41.6 35.2 67.2 83.2 64 160 259.2 188.8 323.2 3.2 9.6 6.4 16 6.4 19.2v6.4c0 0 0 3.2 0 3.2 0 3.2 0 9.6 0 12.8-3.2 22.4 0 41.6 0 51.2 12.8 0 35.2-6.4 48-25.6 19.2-25.6 19.2-76.8-6.4-147.2-35.2-108.8-38.4-169.6-6.4-198.4 16-12.8 38.4-12.8 54.4-9.6 12.8 3.2 22.4 6.4 32 6.4h6.4c64 12.8 176 22.4 214.4-12.8 28.8-28.8 6.4-64 3.2-67.2-9.6-12.8-6.4-35.2 6.4-48 0 0 19.2-19.2 22.4-44.8 0-16-6.4-35.2-22.4-51.2-12.8-9.6-16-28.8-6.4-41.6 0 0 6.4-16 9.6-32 0-25.6-12.8-48-38.4-67.2-9.6-3.2-12.8-19.2-9.6-35.2zM236.8 83.2h-128c-12.8 0-22.4 9.6-22.4 22.4v342.4c0 12.8 9.6 22.4 22.4 22.4h128c12.8 0 22.4-9.6 22.4-22.4v-342.4c3.2-12.8-6.4-22.4-22.4-22.4z" />
<glyph unicode="&#x50;" glyph-name="send" d="M88 14c-62-32-100-4-84 66l66 294c8 34 42 66 78 70l396 46c106 12 106 32 0 44l-396 46c-36 4-70 34-78 68l-66 298c-16 68 22 96 84 64l824-438c62-34 62-86 0-120l-824-438z" />
<glyph unicode="&#x51;" glyph-name="refresh" d="M560 2c206 24 372 188 394 394 32 268-178 496-440 500v120c0 6-8 10-14 6l-248-182c-4-4-4-10 0-12l248-182c6-4 14 0 14 6v120c184-4 332-160 320-346-12-162-142-292-304-302-170-12-314 110-340 272-6 30-32 52-62 52-38 0-66-34-60-70 36-230 248-402 492-376z" />
<glyph unicode="&#x52;" glyph-name="woocommerce" d="M8 702c6 10 18 14 30 14 22 2 36-8 40-32 14-98 30-180 46-246l102 192c8 18 20 28 34 28 20 2 32-12 38-38 10-54 24-108 44-158 12 116 32 202 60 254 6 12 18 20 32 20 10 2 20-2 28-10 8-6 14-14 14-26 2-8 0-14-4-22-18-32-32-88-44-166-12-76-16-134-14-176 2-12 0-22-6-32-4-8-14-16-24-16-12-2-24 4-36 18-44 42-78 108-102 196-30-60-52-104-68-134-26-52-50-78-68-80-14 0-24 10-34 32-22 60-48 178-76 352-2 10 2 22 8 30zM1002 630c-16 28-42 48-74 54-8 2-16 2-26 2-44 0-80-24-108-70-24-38-36-84-36-130 0-36 8-66 22-92 16-28 42-48 74-52 8-2 16-4 26-4 44 0 80 24 108 70 24 40 36 84 36 130 0 36-8 66-22 92zM944 502c-6-30-18-54-36-68-12-12-26-18-38-16-10 2-20 12-26 30-6 14-8 28-8 42 0 12 0 24 2 34 6 20 14 38 26 56 14 22 30 32 48 28 10-2 20-12 26-30 6-14 8-28 8-42 0-12 0-24-2-34zM712 630c-16 28-42 48-74 54-8 2-16 2-24 2-46 0-82-24-110-70-24-38-36-84-36-130 0-36 8-66 22-92 16-28 44-48 74-52 8-2 18-4 26-4 44 0 80 24 108 70 24 40 36 84 36 130 0 36-6 66-22 92zM654 502c-6-30-18-54-36-68-12-12-26-18-38-16-10 2-20 12-26 30-6 14-8 28-8 42 0 12 0 24 2 34 4 20 14 38 26 56 14 22 30 32 48 28 10-2 20-12 26-30 6-14 8-28 8-42 2-12 0-24-2-34z" />
<glyph unicode="&#x53;" glyph-name="social-fb" d="M592 0v468h156l24 182h-180v116c0 52 14 88 90 88h96v162c-16 4-74 8-140 8-140 0-234-84-234-240v-134h-158v-182h158v-468z" />
<glyph unicode="&#x54;" glyph-name="social-tw" d="M1024 830c-38-18-78-28-120-34 42 26 76 68 92 116-42-24-86-40-134-50-38 40-94 66-154 66-116 0-208-94-208-210 0-16 0-32 4-48-174 8-328 92-432 220-18-32-30-68-30-106 0-74 38-138 94-174-34 0-68 10-96 26 0-2 0-2 0-4 0-102 74-186 170-206-18-4-36-6-56-6-14 0-26 0-40 4 28-84 104-146 196-148-70-56-162-88-260-88-16 0-34 0-50 2 92-60 204-94 322-94 386 0 598 320 598 598 0 8 0 18-2 26 42 30 78 68 106 110z" />
<glyph unicode="&#x55;" glyph-name="social-ln" d="M148 972c-70 0-116-46-116-108 0-58 44-106 114-106v0c72 0 118 48 118 106-2 62-46 108-116 108zM44 674h206v-620h-206zM756 688c-112 0-186-104-186-104v90h-206v-620h206v346c0 18 0 36 6 50 16 38 48 76 106 76 74 0 104-58 104-140v-332h206v356c0 190-102 278-236 278z" />
<glyph unicode="&#x56;" glyph-name="social-pi" d="M526 1024c-280 0-430-180-430-376 0-90 50-204 132-240 12-6 20-4 22 8 2 8 14 50 18 70 2 6 2 12-4 18-28 32-48 88-48 142 0 136 108 270 294 270 160 0 272-104 272-254 0-168-90-284-206-284-64 0-110 50-96 112 18 74 54 154 54 208 0 48-26 86-82 86-64 0-118-64-118-150 0-56 20-92 20-92s-64-260-76-310c-20-82 2-214 4-226 2-6 8-8 12-4 6 10 84 120 106 200 8 30 40 148 40 148 22-38 84-70 150-70 196 0 338 172 338 386 0 204-176 358-402 358z" />
<glyph unicode="&#x57;" glyph-name="social-wa" d="M1014 530c0-272-224-492-498-492-88 0-170 22-240 60l-276-88 90 266c-46 74-72 162-72 254 0 274 224 494 498 494s498-220 498-494zM516 946c-230 0-418-186-418-416 0-90 30-174 80-242l-52-154 160 50c66-44 144-68 230-68 230 0 418 186 418 414 0 230-188 416-418 416zM766 416c-2 6-10 8-22 14-12 8-72 36-84 40s-20 6-28-6c-8-12-30-40-38-48s-14-8-26-2c-12 6-52 18-98 60-36 32-62 72-68 84-8 12 0 18 6 24 4 6 12 14 18 22 6 6 8 12 12 20s2 14-2 20c-2 6-26 66-36 90-12 24-22 20-28 20-8 0-16 2-24 2s-22-4-32-16c-12-12-42-40-42-100s42-118 48-126c8-8 86-134 210-182s124-32 146-30c22 2 72 28 82 58 10 28 10 52 6 56z" />
<glyph unicode="&#x58;" glyph-name="social-m" d="M512 1024c-282 0-512-212-512-474 0-150 74-282 190-370v-180l176 96c46-14 94-20 146-20 282 0 512 212 512 474s-230 474-512 474zM562 386l-130 138-254-138 280 296 134-138 250 138z" />
<glyph unicode="&#x59;" glyph-name="bar-chart" d="M265.6 569.6h-230.4c-19.2 0-35.2-16-35.2-35.2v-470.4c0-19.2 16-35.2 35.2-35.2h230.4c19.2 0 35.2 16 35.2 35.2v470.4c0 19.2-12.8 35.2-35.2 35.2zM230.4 502.4v-406.4h-163.2v406.4h163.2zM988.8 707.2h-230.4c-19.2 0-35.2-16-35.2-35.2v-608c0-19.2 16-35.2 35.2-35.2h230.4c19.2 0 35.2 16 35.2 35.2v608c0 19.2-16 35.2-35.2 35.2zM953.6 636.8v-537.6h-163.2v537.6h163.2zM627.2 998.4h-230.4c-19.2 0-35.2-16-35.2-35.2v-899.2c0-19.2 16-35.2 35.2-35.2h230.4c19.2 0 35.2 16 35.2 35.2v899.2c0 19.2-16 35.2-35.2 35.2zM592 931.2v-832h-163.2v832h163.2z" />
<glyph unicode="&#x61;" glyph-name="arrow-down" d="M936 778l-424-424-424 424c-20 22-52 22-72 0-22-20-22-52 0-72l460-460c20-22 52-22 72 0l460 460c22 20 22 52 0 72-20 20-52 20-72 0z" />
<glyph unicode="&#x62;" glyph-name="calendar" d="M665.6 227.2c19.2 0 35.2 16 35.2 35.2s-16 35.2-35.2 35.2c-19.2 0-35.2-16-35.2-35.2s12.8-35.2 35.2-35.2zM665.6 336c19.2 0 35.2 16 35.2 38.4 0 19.2-16 35.2-35.2 35.2s-35.2-16-35.2-35.2c0-19.2 16-38.4 35.2-38.4zM492.8 336c19.2 0 35.2 16 35.2 38.4 0 19.2-16 35.2-35.2 35.2s-35.2-16-35.2-35.2c0-19.2 16-38.4 35.2-38.4zM492.8 448c19.2 0 35.2 16 35.2 35.2s-16 38.4-35.2 38.4-35.2-16-35.2-38.4c0-19.2 16-35.2 35.2-35.2zM492.8 227.2c19.2 0 35.2 16 35.2 35.2s-16 35.2-35.2 35.2c-19.2 0-35.2-16-35.2-35.2s16-35.2 35.2-35.2zM665.6 448c19.2 0 35.2 16 35.2 35.2s-16 38.4-35.2 38.4c-19.2 0-35.2-16-35.2-38.4 0-19.2 12.8-35.2 35.2-35.2zM841.6 448c19.2 0 35.2 16 35.2 35.2s-16 38.4-35.2 38.4c-19.2 0-35.2-16-35.2-38.4 0-19.2 16-35.2 35.2-35.2zM841.6 336c19.2 0 35.2 19.2 35.2 38.4s-19.2 35.2-35.2 35.2c-19.2 0-35.2-16-35.2-35.2s16-38.4 35.2-38.4zM841.6 227.2c19.2 0 35.2 16 35.2 35.2s-16 35.2-35.2 35.2c-19.2 0-35.2-16-35.2-35.2s16-35.2 35.2-35.2zM182.4 115.2c19.2 0 35.2 16 35.2 35.2s-16 35.2-35.2 35.2c-19.2 0-35.2-16-35.2-35.2s16-35.2 35.2-35.2zM182.4 227.2c19.2 0 35.2 16 35.2 35.2s-16 35.2-35.2 35.2c-19.2 0-35.2-16-35.2-35.2s16-35.2 35.2-35.2zM182.4 336c19.2 0 35.2 16 35.2 38.4 0 19.2-16 35.2-35.2 35.2s-35.2-19.2-35.2-35.2c0-19.2 16-38.4 35.2-38.4zM1024 848c0 54.4-44.8 102.4-99.2 102.4h-96v41.6c0 19.2-16 35.2-35.2 35.2s-35.2-16-35.2-35.2v-41.6h-489.6v41.6c0 19.2-16 35.2-35.2 35.2s-35.2-16-35.2-35.2v-41.6h-96c-54.4 0-99.2-44.8-99.2-102.4v-144c0 0 0-3.2 0-6.4s0-3.2 0-3.2v-592c0-54.4 44.8-99.2 99.2-99.2h825.6c54.4 0 99.2 44.8 99.2 99.2v592c0 0 0 3.2 0 3.2 0 3.2 0 3.2 0 6.4l-3.2 144zM70.4 656h880v-553.6c0-16-12.8-28.8-28.8-28.8h-825.6c-16 0-28.8 12.8-28.8 28.8v553.6zM230.4 796.8c19.2 0 35.2 16 35.2 35.2v41.6h489.6v-41.6c0-19.2 16-35.2 35.2-35.2s35.2 16 35.2 35.2v41.6h96c16 0 28.8-12.8 28.8-28.8v-118.4h-880v118.4c0 16 12.8 28.8 28.8 28.8h96v-41.6c0-19.2 16-35.2 35.2-35.2zM339.2 448c19.2 0 35.2 16 35.2 35.2s-16 38.4-35.2 38.4c-19.2 0-35.2-19.2-35.2-38.4s16-35.2 35.2-35.2zM339.2 336c19.2 0 35.2 16 35.2 38.4 0 19.2-16 35.2-35.2 35.2s-35.2-19.2-35.2-35.2c0-19.2 16-38.4 35.2-38.4zM492.8 115.2c19.2 0 35.2 16 35.2 35.2s-16 35.2-35.2 35.2c-19.2 0-35.2-16-35.2-35.2s16-35.2 35.2-35.2zM339.2 227.2c19.2 0 35.2 16 35.2 35.2s-16 35.2-35.2 35.2c-19.2 0-35.2-16-35.2-35.2s16-35.2 35.2-35.2zM339.2 115.2c19.2 0 35.2 16 35.2 35.2s-16 35.2-35.2 35.2c-19.2 0-35.2-16-35.2-35.2s16-35.2 35.2-35.2z" />
<glyph unicode="&#x64;" glyph-name="chat" d="M723.2 550.4h-422.4c-19.2 0-38.4-16-38.4-35.2s16-35.2 38.4-35.2h422.4c19.2 0 38.4 16 38.4 35.2s-19.2 35.2-38.4 35.2zM723.2 409.6h-422.4c-19.2 0-38.4-16-38.4-35.2s16-35.2 38.4-35.2h422.4c19.2 0 38.4 16 38.4 35.2 0 22.4-19.2 35.2-38.4 35.2zM886.4 860.8v0l-12.8 12.8c-96 96-224 150.4-361.6 150.4s-265.6-54.4-361.6-150.4c-185.6-185.6-201.6-476.8-38.4-681.6-19.2-41.6-44.8-70.4-73.6-83.2-22.4-12.8-35.2-35.2-28.8-57.6 3.2-22.4 19.2-41.6 44.8-44.8 9.6-3.2 22.4-3.2 38.4-3.2 64 0 128 19.2 182.4 54.4 76.8-38.4 156.8-57.6 236.8-57.6 137.6 0 265.6 54.4 361.6 150.4s150.4 224 150.4 361.6c0 131.2-48 256-137.6 348.8zM822.4 201.6v0 0 0c-83.2-80-195.2-128-310.4-128-76.8 0-153.6 19.2-220.8 60.8-6.4 6.4-12.8 6.4-19.2 6.4s-16-3.2-22.4-6.4c-51.2-38.4-99.2-51.2-131.2-54.4 25.6 25.6 48 60.8 70.4 105.6 6.4 16 6.4 28.8-6.4 41.6-153.6 172.8-144 438.4 19.2 601.6 80 83.2 188.8 128 310.4 128 118.4 0 230.4-44.8 310.4-128 83.2-83.2 128-195.2 128-313.6s-44.8-230.4-128-313.6v0zM723.2 688h-422.4c-19.2 0-38.4-16-38.4-35.2s16-35.2 38.4-35.2h422.4c19.2 0 38.4 16 38.4 35.2s-19.2 35.2-38.4 35.2z" />
<glyph unicode="&#x65;" glyph-name="clip" d="M944 902.4v0 0c-105.6 102.4-272 102.4-377.6 0l-508.8-508.8c-38.4-38.4-57.6-89.6-57.6-144s22.4-105.6 57.6-144c38.4-38.4 89.6-57.6 140.8-57.6 32 0 67.2 9.6 99.2 25.6 9.6 0 16 3.2 22.4 9.6l508.8 508.8c54.4 54.4 54.4 137.6 0 188.8-54.4 54.4-137.6 54.4-192 0l-416-416c-6.4-6.4-12.8-16-12.8-25.6s3.2-19.2 12.8-25.6c12.8-12.8 38.4-12.8 51.2 0l419.2 419.2c12.8 12.8 28.8 19.2 44.8 19.2 0 0 0 0 0 0 16 0 28.8-6.4 41.6-19.2 25.6-25.6 25.6-64 0-86.4l-486.4-486.4c-51.2-51.2-131.2-51.2-182.4 0-48 48-48 128 0 179.2l512 508.8c35.2 35.2 83.2 57.6 134.4 57.6 0 0 0 0 0 0 51.2 0 99.2-19.2 137.6-57.6 35.2-35.2 57.6-83.2 57.6-134.4s-19.2-102.4-57.6-137.6l-464-464c-12.8-12.8-12.8-38.4 0-51.2 6.4-6.4 19.2-12.8 28.8-12.8s19.2 3.2 22.4 12.8l464 464c51.2 48 76.8 115.2 80 185.6 0 73.6-28.8 140.8-80 192z" />
<glyph unicode="&#x66;" glyph-name="download" d="M825.6 736c-35.2 172.8-204.8 284.8-377.6 252.8-128-25.6-227.2-124.8-252.8-252.8-121.6-12.8-211.2-124.8-198.4-249.6 12.8-112 108.8-198.4 224-198.4h160c19.2 0 32 12.8 32 32s-12.8 32-32 32h-160c-89.6 0-160 73.6-160 160 0 89.6 73.6 160 160 160 16 0 28.8 12.8 32 28.8 16 140.8 144 240 284.8 224 118.4-12.8 211.2-105.6 224-224 3.2-16 16-28.8 35.2-28.8 89.6 0 160-70.4 160-160s-70.4-160-160-160h-160c-19.2 0-32-12.8-32-32s12.8-32 32-32h160c124.8 0 224 102.4 224 227.2 3.2 112-83.2 208-195.2 220.8zM627.2 224c0 0 0 0 0 0l-83.2-83.2v403.2c0 19.2-12.8 32-32 32s-32-12.8-32-32v-403.2l-80 80c-12.8 12.8-32 12.8-44.8 0s-12.8-32 0-44.8c0 0 0 0 0 0l134.4-134.4c3.2-3.2 6.4-6.4 9.6-6.4 6.4-3.2 16-3.2 25.6 0 3.2 3.2 6.4 3.2 9.6 6.4l134.4 134.4c12.8 12.8 12.8 32 0 44.8-9.6 16-28.8 16-41.6 3.2z" />
<glyph unicode="&#x67;" glyph-name="envelope" d="M892.8 905.6h-761.6c-73.6 0-131.2-60.8-131.2-131.2v-521.6c0-73.6 60.8-131.2 131.2-131.2h761.6c73.6 0 131.2 60.8 131.2 131.2v521.6c0 73.6-57.6 131.2-131.2 131.2zM73.6 774.4c0 32 25.6 57.6 57.6 57.6h761.6c32 0 57.6-25.6 57.6-57.6v-528c-3.2-28.8-28.8-51.2-60.8-51.2h-761.6c-32 0-57.6 25.6-57.6 57.6v521.6zM371.2 518.4l-243.2-227.2c-12.8-12.8-16-35.2 0-51.2 6.4-6.4 12.8-12.8 25.6-12.8 9.6 0 19.2 6.4 25.6 9.6l246.4 230.4 64-57.6c6.4-3.2 12.8-9.6 22.4-9.6s19.2 6.4 25.6 9.6l64 57.6 246.4-233.6c6.4-6.4 16-9.6 25.6-9.6 12.8 0 19.2 6.4 25.6 12.8 9.6 9.6 12.8 35.2 0 51.2l-243.2 227.2 240 217.6c16 12.8 16 35.2 3.2 51.2s-35.2 16-51.2 3.2l-336-297.6-60.8 57.6c0 0-3.2 3.2-6.4 3.2l-268.8 240c-6.4 6.4-19.2 9.6-28.8 9.6s-16-6.4-22.4-12.8c-6.4-6.4-9.6-16-9.6-25.6s6.4-19.2 12.8-25.6l243.2-217.6z" />
<glyph unicode="&#x68;" glyph-name="marker" d="M512 825.6c-121.6 0-220.8-99.2-220.8-220.8s99.2-220.8 220.8-220.8c121.6 0 220.8 99.2 220.8 220.8s-99.2 220.8-220.8 220.8zM512 454.4c-83.2 0-150.4 67.2-150.4 150.4s67.2 147.2 150.4 147.2c83.2 0 147.2-67.2 147.2-147.2 0-83.2-64-150.4-147.2-150.4zM512 1024h-12.8c-208-6.4-380.8-169.6-400-374.4-3.2-41.6-3.2-80 6.4-115.2 0 0 0-3.2 3.2-16 6.4-25.6 12.8-51.2 28.8-80 41.6-99.2 131.2-249.6 332.8-419.2 9.6-9.6 25.6-16 44.8-16s32 6.4 44.8 16c201.6 166.4 294.4 320 332.8 416 12.8 28.8 22.4 57.6 28.8 83.2 0 3.2 0 3.2 0 6.4v0c0 3.2 0 3.2 0 6.4 6.4 22.4 9.6 48 9.6 80-3.2 227.2-188.8 412.8-419.2 412.8zM857.6 611.2c0-22.4-3.2-44.8-6.4-67.2 0-3.2-3.2-6.4-3.2-9.6-6.4-25.6-16-48-25.6-70.4-38.4-92.8-124.8-236.8-310.4-390.4-147.2 121.6-252.8 252.8-313.6 390.4-9.6 22.4-16 44.8-22.4 67.2 0 6.4 0 9.6-3.2 12.8v3.2c-6.4 35.2-6.4 67.2-3.2 99.2 16 169.6 156.8 304 329.6 310.4 3.2 0 9.6 0 12.8 0 89.6 0 172.8-35.2 236.8-96 70.4-67.2 108.8-156.8 108.8-249.6z" />
<glyph unicode="&#x69;" glyph-name="message" d="M268.8 652.8h483.2v-73.6h-483.2v73.6zM268.8 528h483.2v-73.6h-483.2v73.6zM268.8 777.6h483.2v-73.6h-483.2v73.6zM876.8 988.8h-732.8c-83.2 0-147.2-64-147.2-147.2v-448c0-76.8 60.8-140.8 137.6-144v-208l300.8 208h438.4c80 0 147.2 67.2 147.2 147.2v448c3.2 76.8-60.8 144-144 144zM211.2 176v144h-67.2c-41.6 0-73.6 32-73.6 73.6v448c0 41.6 32 73.6 73.6 73.6h732.8c41.6 0 73.6-32 73.6-73.6v-448c0-41.6-32-73.6-73.6-73.6h-460.8l-204.8-144z" />
<glyph unicode="&#x6a;" glyph-name="desktop" d="M892.8 976h-761.6c-73.6 0-131.2-57.6-131.2-131.2v-483.2c0-73.6 57.6-131.2 131.2-131.2h345.6v-102.4h-166.4c-19.2 0-38.4-16-38.4-38.4 0-19.2 16-35.2 38.4-35.2h406.4c19.2 0 38.4 16 38.4 35.2s-16 38.4-38.4 38.4h-166.4v102.4h345.6c73.6 0 131.2 57.6 131.2 131.2v480c-3.2 73.6-60.8 134.4-134.4 134.4zM950.4 361.6c0-32-25.6-57.6-57.6-57.6h-761.6c-32 0-57.6 25.6-57.6 57.6v16h876.8v-16zM950.4 448h-876.8v393.6c0 32 25.6 57.6 57.6 57.6h761.6c32 0 57.6-25.6 57.6-57.6v-393.6z" />
<glyph unicode="&#x6b;" glyph-name="plane" d="M1014.4 1014.4v0c-12.8 9.6-28.8 12.8-41.6 9.6l-950.4-416c-12.8-6.4-22.4-19.2-22.4-32s6.4-25.6 19.2-32l329.6-188.8 195.2-332.8c6.4-9.6 19.2-19.2 32-19.2h3.2c12.8 0 22.4 6.4 32 22.4l412.8 950.4c3.2 12.8 0 25.6-9.6 38.4zM822.4 876.8l-451.2-448-249.6 140.8 700.8 307.2zM876.8 828.8l-307.2-707.2-147.2 256 454.4 451.2z" />
<glyph unicode="&#x6c;" glyph-name="phone" d="M550.4 771.2c51.2-9.6 102.4-35.2 144-73.6 38.4-38.4 67.2-89.6 73.6-144 3.2-16 16-28.8 35.2-28.8h6.4c9.6 0 16 6.4 22.4 12.8s9.6 19.2 6.4 28.8c-12.8 70.4-44.8 131.2-96 182.4s-115.2 83.2-182.4 92.8c-9.6 0-19.2 0-25.6-6.4s-12.8-12.8-12.8-22.4c-3.2-9.6 0-19.2 3.2-28.8 6.4-6.4 16-12.8 25.6-12.8zM812.8 396.8c-44.8 44.8-112 44.8-156.8 0l-64-64c0 0-3.2 0-3.2 0-3.2 0-6.4 3.2-9.6 3.2-6.4 3.2-16 6.4-19.2 12.8-60.8 38.4-121.6 92.8-172.8 156.8-25.6 32-41.6 57.6-54.4 83.2 16 12.8 32 28.8 44.8 44.8 3.2 3.2 3.2 3.2 6.4 6.4s6.4 9.6 12.8 12.8c48 48 48 108.8 0 156.8l-76.8 76.8c-12.8 12.8-28.8 28.8-41.6 38.4-22.4 22.4-48 35.2-76.8 35.2s-54.4-12.8-76.8-35.2l-73.6-73.6c-28.8-28.8-44.8-64-48-102.4-3.2-51.2 6.4-102.4 28.8-160 35.2-96 86.4-182.4 163.2-275.2 92.8-112 204.8-198.4 332.8-262.4 67.2-32 131.2-51.2 192-54.4h12.8c51.2 0 96 19.2 128 54.4l3.2 6.4c6.4 6.4 12.8 16 22.4 22.4 3.2 3.2 9.6 9.6 12.8 12.8l28.8 28.8c22.4 22.4 35.2 51.2 32 80 0 28.8-12.8 54.4-35.2 76.8l-112 118.4zM99.2 620.8c-19.2 51.2-25.6 89.6-25.6 128 3.2 25.6 12.8 41.6 28.8 57.6l73.6 73.6c16 16 38.4 16 54.4 0 12.8-12.8 25.6-25.6 38.4-41.6 3.2-3.2 6.4-6.4 9.6-9.6s6.4-6.4 9.6-9.6l57.6-57.6c9.6-9.6 16-19.2 16-25.6s-6.4-19.2-16-28.8l-19.2-19.2c-16-19.2-32-35.2-51.2-51.2-3.2 0-6.4-3.2-6.4-6.4-12.8-16-16-32-9.6-51.2v-3.2c16-35.2 35.2-67.2 70.4-115.2 60.8-73.6 121.6-131.2 192-172.8 6.4-6.4 51.2-28.8 51.2-28.8 6.4-3.2 16-3.2 22.4-3.2 19.2 0 32 12.8 38.4 16l73.6 73.6c9.6 9.6 19.2 16 28.8 16s19.2-6.4 25.6-16l118.4-118.4c19.2-19.2 19.2-35.2 0-57.6-3.2-3.2-6.4-6.4-6.4-6.4-6.4-6.4-12.8-12.8-19.2-19.2l-41.6-41.6c-19.2-22.4-41.6-32-73.6-32h-9.6c-60.8 3.2-118.4 28.8-163.2 51.2-118.4 54.4-224 137.6-313.6 243.2v0c-76.8 92.8-124.8 172.8-153.6 256zM1020.8 572.8c-19.2 112-70.4 214.4-153.6 297.6-76.8 80-179.2 134.4-294.4 153.6-19.2 3.2-38.4-12.8-41.6-32 0-9.6 0-19.2 6.4-25.6s12.8-12.8 22.4-12.8c99.2-16 185.6-60.8 259.2-134.4 70.4-70.4 115.2-160 134.4-259.2 3.2-16 19.2-32 35.2-32h6.4c9.6 0 19.2 6.4 25.6 16 3.2 12.8 3.2 22.4 0 28.8z" />
<glyph unicode="&#x6d;" glyph-name="settings" d="M966.4 627.2l-9.6 3.2-57.6 9.6c-6.4 22.4-16 41.6-25.6 60.8l41.6 54.4c19.2 28.8 16 67.2-9.6 89.6l-64 64c-12.8 12.8-28.8 19.2-48 19.2-16 0-28.8-3.2-38.4-12.8l-54.4-38.4c-22.4 9.6-41.6 19.2-64 25.6l-9.6 67.2c-6.4 32-35.2 57.6-67.2 57.6h-89.6c-35.2 0-64-22.4-70.4-57.6l-9.6-67.2c-19.2-6.4-41.6-12.8-60.8-25.6l-54.4 38.4c-9.6 9.6-25.6 12.8-41.6 12.8-19.2 0-35.2-6.4-51.2-22.4l-64-64c-25.6-22.4-28.8-60.8-6.4-89.6l38.4-54.4c-9.6-19.2-16-38.4-25.6-60.8l-67.2-9.6c-35.2-6.4-57.6-35.2-57.6-70.4v-89.6c0-32 25.6-60.8 57.6-70.4l67.2-9.6c6.4-19.2 12.8-41.6 25.6-60.8l-38.4-54.4c-19.2-28.8-16-67.2 9.6-89.6l64-64c12.8-12.8 28.8-19.2 48-19.2 16 0 28.8 3.2 38.4 12.8l54.4 38.4c19.2-9.6 41.6-16 57.6-25.6l9.6-67.2c6.4-32 35.2-57.6 67.2-57.6h89.6c32 0 60.8 25.6 70.4 57.6l9.6 67.2c22.4 6.4 41.6 16 60.8 25.6l54.4-38.4c12.8-9.6 25.6-12.8 41.6-12.8 19.2 0 35.2 6.4 48 19.2l64 64c25.6 25.6 25.6 60.8 6.4 89.6l-38.4 54.4c9.6 19.2 19.2 38.4 25.6 60.8l67.2 9.6c32 6.4 57.6 35.2 57.6 67.2v89.6c6.4 38.4-19.2 67.2-51.2 73.6zM838.4 432c-9.6-35.2-22.4-60.8-35.2-86.4-6.4-12.8-6.4-28.8 3.2-41.6l51.2-73.6-60.8-60.8-73.6 48c-12.8 9.6-25.6 9.6-41.6 3.2-25.6-12.8-54.4-25.6-86.4-35.2-12.8-3.2-22.4-12.8-25.6-28.8l-16-86.4h-83.2l-16 86.4c-3.2 16-12.8 25.6-25.6 28.8-28.8 6.4-57.6 22.4-83.2 35.2-6.4 6.4-12.8 6.4-19.2 6.4s-12.8 0-22.4-6.4l-70.4-51.2-60.8 60.8 51.2 70.4c9.6 12.8 9.6 28.8 3.2 41.6-16 32-28.8 57.6-35.2 83.2-3.2 16-12.8 25.6-28.8 28.8l-86.4 16v83.2l86.4 16c16 3.2 25.6 12.8 28.8 25.6 6.4 25.6 19.2 54.4 35.2 86.4 6.4 12.8 6.4 25.6-3.2 41.6l-51.2 70.4 60.8 60.8 70.4-51.2c12.8-9.6 28.8-9.6 38.4-3.2 25.6 16 54.4 28.8 86.4 35.2 12.8 6.4 22.4 16 25.6 28.8l16 86.4h86.4c0 0 0 0 0 0l12.8-86.4c3.2-12.8 12.8-25.6 28.8-28.8 32-9.6 64-22.4 89.6-35.2 12.8-6.4 28.8-6.4 38.4 0l70.4 51.2 60.8-60.8-51.2-70.4c-9.6-12.8-9.6-25.6-3.2-41.6 19.2-32 28.8-60.8 35.2-86.4 3.2-12.8 16-22.4 28.8-25.6l86.4-16v-83.2l-86.4-16c-16 3.2-28.8-6.4-28.8-19.2zM512 739.2c-124.8 0-224-102.4-224-227.2s99.2-224 224-224c124.8 0 227.2 99.2 227.2 224 0 128-102.4 227.2-227.2 227.2zM512 361.6c-83.2 0-153.6 70.4-153.6 153.6s70.4 153.6 153.6 153.6c83.2 0 153.6-70.4 153.6-153.6 0-86.4-70.4-153.6-153.6-153.6z" />
<glyph unicode="&#x6e;" glyph-name="user" d="M950.4 227.2c-3.2 41.6-6.4 140.8-99.2 172.8h-3.2c-92.8 25.6-169.6 76.8-169.6 76.8-9.6 6.4-19.2 9.6-28.8 6.4s-16-6.4-22.4-12.8c-12.8-16-9.6-35.2 9.6-51.2 0 0 0 0 3.2-3.2 80-51.2 147.2-73.6 188.8-86.4 41.6-16 48-57.6 51.2-112v-3.2c0-19.2 0-44.8-3.2-60.8-25.6-12.8-156.8-83.2-361.6-83.2s-336 67.2-361.6 83.2c-3.2 16-3.2 41.6-3.2 60.8v6.4c3.2 51.2 6.4 92.8 48 108.8 41.6 9.6 112 35.2 188.8 86.4 3.2 0 3.2 3.2 3.2 3.2 16 12.8 19.2 35.2 6.4 51.2-9.6 16-32 19.2-51.2 9.6l-3.2-3.2c-12.8-9.6-80-54.4-166.4-76.8h-3.2c-92.8-32-99.2-131.2-99.2-172.8v-9.6c0-25.6 3.2-70.4 12.8-99.2 0-3.2 6.4-12.8 12.8-16 0 0 156.8-102.4 412.8-102.4 249.6 0 396.8 92.8 412.8 102.4 9.6 3.2 12.8 9.6 16 16 9.6 25.6 9.6 70.4 9.6 96v12.8zM508.8 467.2h6.4c64 3.2 115.2 25.6 150.4 67.2 35.2 38.4 73.6 115.2 70.4 262.4 0 3.2 0 6.4 0 6.4-6.4 112-60.8 169.6-105.6 195.2-35.2 19.2-73.6 32-115.2 32h-3.2c-19.2 0-70.4-3.2-115.2-32-38.4-19.2-99.2-73.6-105.6-195.2 0-3.2-19.2-169.6 70.4-268.8 32-44.8 83.2-67.2 147.2-67.2zM358.4 784v0 9.6c6.4 137.6 96 156.8 150.4 156.8h3.2c54.4 0 147.2-19.2 150.4-156.8v-3.2c3.2-22.4 9.6-147.2-48-211.2-22.4-28.8-57.6-41.6-102.4-41.6h-3.2c-44.8 0-76.8 12.8-99.2 41.6-57.6 64-54.4 179.2-51.2 204.8z" />
<glyph unicode="&#x6f;" glyph-name="search" d="M990 92l-236 236c58 70 94 162 94 260 0 228-184 414-412 414-230 0-414-186-414-414s184-412 414-412c98 0 190 34 260 94l236-236c16-16 42-16 58 0s16 42 0 58zM436 258c-184 0-332 148-332 330 0 184 148 332 332 332 182 0 330-148 330-332 0-182-148-330-330-330z" />
<glyph unicode="&#x70;" glyph-name="close" d="M602 512l404 402c24 26 24 66 0 92-26 24-66 24-92 0l-402-404-402 404c-26 24-66 24-92 0-24-26-24-66 0-92l404-402-404-402c-24-26-24-66 0-92 14-12 30-18 46-18s32 6 46 18l402 404 402-404c14-12 30-18 46-18s32 6 46 18c24 26 24 66 0 92z" />
<glyph unicode="&#x71;" glyph-name="message-add" d="M534.4 528c0-22.4 19.2-41.6 41.6-41.6 19.2 0 38.4 19.2 38.4 41.6 0 19.2-19.2 38.4-38.4 38.4-22.4 0-41.6-19.2-41.6-38.4zM598.4 211.2c-9.6 3.2-19.2 6.4-28.8 3.2-35.2-9.6-73.6-16-118.4-16-76.8 0-150.4 19.2-208 54.4-12.8 6.4-25.6 6.4-35.2-3.2-22.4-12.8-48-22.4-76.8-25.6 12.8 16 25.6 38.4 35.2 60.8 3.2 9.6 0 25.6-9.6 35.2-54.4 57.6-83.2 128-83.2 208 0 182.4 169.6 329.6 380.8 329.6 195.2 0 358.4-124.8 380.8-294.4 3.2-19.2 19.2-32 38.4-32 19.2 3.2 32 19.2 32 38.4-25.6 204.8-220.8 358.4-451.2 358.4-249.6 0-451.2-179.2-451.2-400 0-83.2 32-169.6 86.4-236.8-9.6-19.2-25.6-38.4-44.8-48-16-9.6-22.4-28.8-19.2-51.2 6.4-19.2 22.4-32 41.6-35.2 60.8-6.4 118.4 0 163.2 25.6 70.4-35.2 147.2-54.4 227.2-54.4 48 0 96 6.4 140.8 19.2 9.6 3.2 16 9.6 22.4 16 3.2 9.6 6.4 19.2 3.2 28.8-9.6 6.4-16 12.8-25.6 19.2zM412.8 528c0-22.4 16-41.6 38.4-41.6s38.4 19.2 38.4 41.6c0 19.2-16 38.4-38.4 38.4s-38.4-19.2-38.4-38.4zM816 518.4c-118.4 0-208-92.8-208-208s92.8-208 208-208c115.2 0 208 92.8 208 208s-92.8 208-208 208zM816 166.4c-80 0-144 64-144 140.8s64 144 144 144c76.8 0 140.8-64 140.8-144 0-76.8-64-140.8-140.8-140.8zM294.4 528c0-22.4 16-41.6 38.4-41.6s38.4 19.2 38.4 41.6c0 19.2-16 38.4-38.4 38.4s-38.4-19.2-38.4-38.4zM876.8 342.4h-28.8v28.8c0 19.2-16 35.2-35.2 35.2s-35.2-16-35.2-35.2v-28.8h-28.8c-19.2 0-35.2-16-35.2-35.2s16-35.2 35.2-35.2h28.8v-28.8c0-19.2 16-35.2 35.2-35.2s35.2 16 35.2 35.2v28.8h28.8c19.2 0 35.2 16 35.2 35.2s-16 35.2-35.2 35.2z" />
<glyph unicode="&#x72;" glyph-name="emoji" d="M345.6 563.2c35.2 0 64 28.8 64 64s-28.8 64-64 64c-32 0-60.8-28.8-60.8-64s28.8-64 60.8-64zM684.8 563.2c35.2 0 60.8 28.8 60.8 64s-28.8 64-60.8 64c-35.2 0-64-28.8-64-64s28.8-64 64-64zM723.2 412.8c-51.2-80-147.2-124.8-240-112-73.6 6.4-140.8 48-182.4 112l-3.2 6.4-60.8-38.4 3.2-6.4c51.2-80 137.6-134.4 233.6-144 6.4 0 12.8 0 16 0 6.4 0 12.8 0 19.2 0 105.6 0 211.2 57.6 272 147.2l3.2 6.4-57.6 38.4-3.2-9.6zM512 1024c-281.6 0-512-230.4-512-512s230.4-512 512-512c281.6 0 512 230.4 512 512 0 284.8-230.4 512-512 512zM512 73.6c-118.4 0-230.4 44.8-310.4 128-35.2 38.4-60.8 70.4-80 108.8-32 64-51.2 131.2-51.2 204.8 0 243.2 198.4 441.6 441.6 441.6 112 0 217.6-41.6 300.8-115.2 41.6-38.4 73.6-83.2 99.2-134.4 28.8-57.6 41.6-124.8 41.6-188.8 0-249.6-198.4-444.8-441.6-444.8z" />
<glyph unicode="&#x73;" glyph-name="menu" d="M640 512c0-70-58-128-128-128s-128 58-128 128c0 70 58 128 128 128s128-58 128-128zM640 128c0-70-58-128-128-128s-128 58-128 128c0 70 58 128 128 128s128-58 128-128zM640 896c0-70-58-128-128-128s-128 58-128 128c0 70 58 128 128 128s128-58 128-128z" />
<glyph unicode="&#x74;" glyph-name="arrow-left" d="M246 476l460-460c20-22 52-22 72 0 20 20 20 52 0 72l-424 424 424 424c20 20 20 52 0 72-20 22-52 22-72 0l-460-460c-20-20-20-52 0-72z" />
<glyph unicode="&#x75;" glyph-name="arrow-right" d="M778 548l-460 460c-20 22-52 22-72 0-20-20-20-52 0-72l424-424-424-424c-20-20-20-52 0-72 20-22 52-22 72 0l460 460c20 20 20 52 0 72z" />
<glyph unicode="&#x76;" glyph-name="loader" d="M900 510c0 210-172 382-382 382-212 0-384-172-384-382h84c0 164 134 298 300 298 164 0 298-134 298-298z" />
<glyph unicode="&#x77;" glyph-name="check" d="M1010 874c-20 20-54 20-74 0l-612-614-236 236c-20 20-54 20-74 0s-20-54 0-74l272-272c20-20 54-18 74 0l650 650c20 20 20 54 0 74z" />
<glyph unicode="&#x78;" glyph-name="delete" d="M694.4 188.8c19.2 0 35.2 16 35.2 35.2v432c0 19.2-16 35.2-35.2 35.2s-35.2-16-35.2-35.2v-432c0-19.2 16-35.2 35.2-35.2zM931.2 880h-201.6v28.8c0 64-54.4 118.4-118.4 118.4h-201.6c-64 0-118.4-54.4-118.4-118.4v-28.8h-201.6c-19.2 0-38.4-16-38.4-35.2s16-35.2 38.4-35.2h41.6v-649.6c0-86.4 70.4-156.8 156.8-156.8h441.6c86.4 0 156.8 70.4 156.8 156.8v649.6h41.6c19.2 0 38.4 16 38.4 35.2 3.2 19.2-12.8 35.2-35.2 35.2zM412.8 953.6h201.6c25.6 0 48-22.4 48-48v-28.8h-294.4v28.8c-3.2 25.6 19.2 48 44.8 48zM816 809.6v-652.8c-3.2-44.8-38.4-83.2-83.2-83.2h-441.6c-48 0-83.2 38.4-83.2 86.4v649.6h608zM512 156.8c19.2 0 35.2 16 35.2 38.4v492.8c0 19.2-16 35.2-35.2 35.2s-35.2-16-35.2-35.2v-492.8c0-22.4 16-38.4 35.2-38.4zM329.6 188.8c19.2 0 35.2 16 35.2 35.2v432c0 19.2-16 35.2-35.2 35.2s-35.2-16-35.2-35.2v-432c0-19.2 12.8-35.2 35.2-35.2z" />
<glyph unicode="&#x79;" glyph-name="padlock" d="M848 569.6h-41.6v163.2c0 160-131.2 291.2-291.2 291.2s-291.2-131.2-291.2-291.2v-163.2h-41.6c-44.8 0-83.2-38.4-83.2-86.4v-400c0-44.8 38.4-83.2 83.2-83.2h668.8c44.8 0 83.2 38.4 83.2 83.2v400c-3.2 48-41.6 86.4-86.4 86.4zM291.2 732.8c0 121.6 99.2 220.8 220.8 220.8s220.8-99.2 220.8-220.8v-163.2h-444.8l3.2 163.2zM857.6 483.2v-400c0-6.4-6.4-9.6-9.6-9.6h-668.8c-6.4 0-9.6 6.4-9.6 9.6v400c0 6.4 3.2 12.8 9.6 12.8h668.8c3.2 0 9.6-3.2 9.6-12.8zM512 400c-60.8 0-112-51.2-112-112 0-64 51.2-115.2 112-115.2s112 51.2 112 115.2c0 60.8-51.2 112-112 112zM512 243.2c-22.4 0-41.6 19.2-41.6 38.4 0 22.4 19.2 41.6 41.6 41.6s41.6-19.2 41.6-41.6c0-19.2-19.2-38.4-41.6-38.4z" />
<glyph unicode="&#x7a;" glyph-name="shuffle" d="M438.4 444.8c-16 9.6-38.4 6.4-51.2-9.6l-32-48c-51.2-86.4-131.2-137.6-208-137.6h-112c-19.2 0-35.2-16-35.2-35.2s16-35.2 35.2-35.2h112c105.6 0 201.6 60.8 268.8 169.6l32 48c12.8 12.8 6.4 35.2-9.6 48zM534.4 601.6c6.4-6.4 16-6.4 19.2-6.4 9.6 0 25.6 6.4 32 16l19.2 28.8c51.2 86.4 128 134.4 208 134.4h89.6l-60.8-60.8c-6.4-6.4-9.6-16-9.6-25.6s3.2-19.2 9.6-25.6c6.4-6.4 16-9.6 25.6-9.6s19.2 6.4 25.6 9.6l121.6 121.6c6.4 6.4 9.6 16 9.6 25.6s-3.2 19.2-9.6 25.6l-121.6 121.6c-6.4 6.4-16 9.6-25.6 9.6 0 0 0 0 0 0-9.6 0-19.2-3.2-25.6-9.6-12.8-12.8-12.8-38.4 0-51.2l60.8-60.8h-89.6c-105.6 0-201.6-60.8-268.8-169.6l-19.2-32c-6.4-9.6-6.4-19.2-3.2-28.8 0 0 3.2-6.4 12.8-12.8zM892.8 358.4c-12.8 12.8-38.4 12.8-51.2 0s-12.8-35.2 0-51.2l60.8-60.8h-86.4c-80 0-153.6 48-211.2 137.6l-185.6 297.6c-67.2 108.8-166.4 169.6-268.8 169.6h-115.2c-19.2 0-35.2-16-35.2-35.2s16-35.2 35.2-35.2h115.2c80 0 156.8-48 208-134.4l185.6-297.6c67.2-108.8 163.2-169.6 268.8-169.6h86.4l-57.6-60.8c-6.4-6.4-9.6-12.8-12.8-22.4 0-9.6 3.2-19.2 9.6-25.6s16-12.8 25.6-12.8c12.8 0 22.4 3.2 25.6 9.6l121.6 121.6c6.4 6.4 9.6 16 9.6 25.6s-3.2 19.2-9.6 25.6l-118.4 118.4z" />
<glyph unicode="&#xe900;" glyph-name="shopify" d="M618.24 130.688l229.589 49.749s-82.816 560.555-83.499 564.267c-0.683 3.669-3.669 6.144-6.741 6.144s-61.397 4.309-61.397 4.309-40.491 40.491-45.397 44.8c-1.152 1.237-2.432 1.835-3.669 2.475l-28.885-671.744zM637.269 803.627c-0.683 0-1.835-0.597-2.432-0.597-0.683 0-9.259-2.517-22.741-6.741-13.568 39.211-37.504 75.435-79.829 75.435h-3.669c-12.331 15.403-27.008 22.144-39.936 22.144-98.816 0-146.176-123.392-160.853-185.984-38.059-11.733-65.621-20.309-68.821-21.547-21.504-6.741-22.059-7.339-24.491-27.648-2.432-14.677-58.325-447.531-58.325-447.531l431.659-81.024 29.44 673.493zM524.843 773.589v-4.352c-23.851-7.381-50.261-15.36-76.075-23.339 14.763 56.448 42.325 84.139 66.261 94.592 6.229-16 9.813-37.461 9.813-66.901zM485.589 867.456c4.267 0 8.576-1.195 12.928-4.352-31.232-14.677-65.664-52.139-79.829-127.061-2.12-1.481-22.181-7.778-42.348-13.83l-17.855-4.602c16.597 57.131 56.533 149.845 127.104 149.845zM502.741 534.144s-25.771 13.44-56.405 13.44c-46.080 0-47.915-28.843-47.915-36.224 0-39.296 103.168-54.613 103.168-147.328 0-73.045-46.080-119.723-108.672-119.723-74.923 0-112.981 46.677-112.981 46.677l20.267 66.304s39.339-33.792 72.405-33.792c0.356-0.015 0.775-0.024 1.195-0.024 16.293 0 29.509 13.179 29.568 29.458v0.006c0 51.584-84.736 54.101-84.736 138.752 0 71.211 50.987 140.587 154.752 140.587 39.936 0 59.52-11.605 59.52-11.605l-30.165-86.528zM542.080 844.8c22.101-2.56 36.267-27.648 45.397-55.936-11.008-3.712-23.339-7.381-36.821-11.648v7.979c0 23.936-3.072 43.605-8.576 59.605z" />
<glyph unicode="&#xe901;" glyph-name="circle" d="M512 1024c-281.6 0-512-230.4-512-512s230.4-512 512-512 512 230.4 512 512c0 284.8-230.4 512-512 512zM512 73.6c-243.2 0-438.4 198.4-438.4 438.4 0 243.2 198.4 438.4 438.4 438.4 243.2 0 438.4-198.4 438.4-438.4s-195.2-438.4-438.4-438.4z" />
<glyph unicode="&#xe902;" glyph-name="filter" horiz-adv-x="1041" d="M161.013 999.953c-88.871 0-161.013-72.142-161.013-161.013 0-38.267 13.592-75.279 38.476-104.345 23.002-26.766 54.159-45.585 88.662-52.904v-615.404h-0.418v-8.364c0-18.82 15.265-34.085 34.085-34.085s34.085 15.265 34.085 34.085v623.977c34.294 7.528 65.451 26.138 88.453 52.904 24.884 29.066 38.685 66.078 38.685 104.345 0 88.662-72.142 160.804-161.013 160.804zM246.329 965.659c-3.973 2.718-8.364 5.228-12.546 7.737 4.182-2.509 8.364-5.019 12.546-7.737zM199.907 745.678c2.928 1.255 6.064 2.718 8.783 4.182-2.718-1.464-5.646-2.928-8.783-4.182zM67.542 838.94c0 51.231 41.822 93.053 93.053 93.053s93.053-41.822 93.053-93.053c0-51.231-41.822-93.053-93.053-93.053s-93.053 41.822-93.053 93.053zM116.682 747.56c-7.319 3.555-14.219 7.946-20.493 13.174 6.273-5.019 13.174-9.619 20.493-13.174zM71.515 790.636c-1.464 2.928-2.928 5.855-4.182 8.783 1.046-2.928 2.509-5.855 4.182-8.783zM135.293 740.868c-3.137 0.836-6.482 1.882-9.41 2.928 2.928-1.255 6.273-2.091 9.41-2.928s6.482-1.464 9.828-2.091c-3.346 0.627-6.482 1.255-9.828 2.091zM251.975 795.236c-3.555-7.319-7.946-14.219-13.174-20.493 5.228 6.064 9.619 12.965 13.174 20.493zM260.757 823.675c-0.418-3.346-1.255-6.691-2.091-9.828s-1.882-6.482-2.928-9.41c1.046 3.137 2.091 6.273 2.928 9.41 1.046 3.137 1.673 6.482 2.091 9.828zM88.453 973.187c-4.391-2.3-8.573-4.809-12.546-7.737 3.973 2.928 8.155 5.437 12.546 7.737zM48.095 941.612c5.019 5.437 10.246 10.455 15.892 15.056-5.646-4.6-10.874-9.619-15.892-15.056-3.346-3.555-6.482-7.319-9.41-11.292 2.928 3.973 6.064 7.737 9.41 11.292zM26.766 911.709c-2.3-4.391-4.6-8.783-6.482-13.383 2.091 4.6 4.182 9.201 6.482 13.383zM9.201 854.623c0.627 5.228 1.255 10.246 2.3 15.056 1.046 5.019 2.3 9.828 3.764 14.638-1.464-4.809-2.718-9.619-3.764-14.638-1.046-4.809-1.882-9.828-2.3-15.056s-0.836-10.246-0.836-15.683c0 5.437 0.209 10.664 0.836 15.683zM218.936 698.001c6.064 2.509 12.128 5.437 17.774 8.783-5.646-3.346-11.71-6.273-17.774-8.783zM242.356 710.129c7.528 4.6 14.428 10.037 20.911 15.892-6.482-5.855-13.383-11.083-20.911-15.892zM272.676 735.222c4.391 4.809 8.573 9.828 12.546 15.265-3.973-5.228-8.155-10.455-12.546-15.265zM310.525 869.888c1.046-5.019 1.882-10.037 2.3-15.056s0.836-10.246 0.836-15.683c0 5.228-0.209 10.455-0.836 15.683s-1.255 10.037-2.3 15.056c-1.046 5.019-2.3 9.828-3.764 14.638 1.464-4.809 2.718-9.828 3.764-14.638zM301.533 898.535c-1.882 4.6-4.182 8.992-6.482 13.383 2.509-4.391 4.6-8.992 6.482-13.383zM273.931 941.612c-5.019 5.437-10.246 10.455-15.892 15.056 5.646-4.6 10.874-9.619 15.892-15.056 3.346-3.555 6.482-7.319 9.41-11.292-2.928 3.973-6.064 7.737-9.41 11.292zM552.671 342.1v623.768c0 18.82-15.265 34.085-34.085 34.085s-34.085-15.265-34.085-34.085v-623.768c-34.294-7.528-65.451-26.138-88.453-52.904-24.884-29.066-38.685-66.078-38.685-104.345 0-88.871 72.142-161.013 161.013-161.013 42.867 0 83.434 16.729 113.964 47.258s47.467 70.887 47.467 113.755c0 38.267-13.592 75.279-38.476 104.345-23.002 26.975-54.368 45.585-88.662 52.904zM518.796 91.798c-51.231 0-93.053 41.822-93.053 93.053s41.822 93.053 93.053 93.053 93.053-41.822 93.053-93.053-41.822-93.053-93.053-93.053zM523.815 991.17c1.673-0.418 3.346-0.836 4.809-1.464-1.464 0.627-3.137 1.046-4.809 1.464s-3.346 0.418-5.228 0.418v0c1.882 0 3.555 0 5.228-0.418zM879.716 999.953c-88.871 0-161.013-72.142-161.013-161.013 0-38.267 13.592-75.279 38.476-104.345 23.002-26.766 54.159-45.585 88.662-52.904v-623.559c-0.209-8.992 3.137-17.565 9.41-24.047 6.482-6.691 15.056-10.246 24.256-10.246 18.82 0 34.085 15.265 34.085 34.085v623.977c34.294 7.528 65.451 26.138 88.453 52.904 24.884 29.066 38.685 66.078 38.685 104.345 0 88.662-72.142 160.804-161.013 160.804zM1029.228 869.888c1.046-5.019 1.882-10.037 2.3-15.056s0.836-10.246 0.836-15.683c0 5.228-0.209 10.455-0.836 15.683s-1.255 10.037-2.3 15.056c-1.046 5.019-2.3 9.828-3.764 14.638 1.464-4.809 2.718-9.828 3.764-14.638zM1020.236 898.535c-1.882 4.6-4.182 8.992-6.482 13.383 2.509-4.391 4.6-8.992 6.482-13.383zM992.634 941.612c3.346-3.555 6.482-7.319 9.41-11.292-2.928 3.973-6.064 7.737-9.41 11.292-5.019 5.437-10.246 10.455-15.892 15.056 5.646-4.6 10.874-9.619 15.892-15.056zM879.507 745.887c-51.231 0-93.053 41.822-93.053 93.053s41.822 93.053 93.053 93.053 93.053-41.822 93.053-93.053c0-51.231-41.822-93.053-93.053-93.053zM818.865 757.806c-3.973 2.928-7.528 6.064-11.083 9.619-2.3 2.3-4.391 4.6-6.482 7.11 2.091-2.509 4.182-4.809 6.482-7.11 3.346-3.555 7.11-6.691 11.083-9.619zM786.036 799.628c-1.255 3.137-2.509 6.064-3.346 9.41-1.046 3.137-1.882 6.482-2.509 9.619 0.627-3.346 1.464-6.482 2.509-9.619 1.046-3.346 2.091-6.482 3.346-9.41zM849.395 742.123c-3.137 1.046-6.273 2.091-9.41 3.346 3.137-1.255 6.273-2.3 9.41-3.346s6.482-1.882 9.619-2.509c-3.346 0.836-6.482 1.673-9.619 2.509zM926.347 749.233c-1.882-1.046-3.973-2.091-6.064-2.928 2.091 0.836 3.973 1.882 6.064 2.928zM970.887 795.236c-3.137-6.482-7.11-12.756-11.501-18.401 4.391 5.646 8.364 11.71 11.501 18.401zM977.787 813.847c0.836 3.137 1.464 6.482 2.091 9.828-0.627-3.346-1.255-6.691-2.091-9.828s-1.882-6.482-2.928-9.41c1.046 2.928 2.091 6.064 2.928 9.41zM965.032 965.659c-3.973 2.718-8.364 5.228-12.546 7.737 4.182-2.509 8.364-5.019 12.546-7.737zM807.155 973.187c-4.391-2.3-8.573-4.809-12.546-7.737 3.973 2.928 8.155 5.437 12.546 7.737zM766.798 941.612c5.019 5.437 10.246 10.455 15.892 15.056-5.646-4.6-10.874-9.619-15.892-15.056-3.346-3.555-6.482-7.319-9.41-11.292 2.928 3.973 6.064 7.737 9.41 11.292zM745.469 911.709c-2.3-4.391-4.6-8.783-6.482-13.383 2.091 4.6 4.182 9.201 6.482 13.383zM727.904 854.623c0.627 5.228 1.255 10.246 2.3 15.056 1.046 5.019 2.3 9.828 3.764 14.638-1.464-4.809-2.718-9.619-3.764-14.638-1.046-4.809-1.882-9.828-2.3-15.056s-0.836-10.246-0.836-15.683c0 5.437 0.209 10.664 0.836 15.683zM955.413 706.784c3.764 2.091 7.528 4.6 11.083 7.11-3.555-2.509-7.319-5.019-11.083-7.11zM977.16 721.839c5.019 4.182 9.828 8.783 14.428 13.592-4.6-5.019-9.41-9.41-14.428-13.592zM999.953 745.26c3.973 5.228 7.737 10.664 11.083 16.31-3.346-5.646-7.11-11.083-11.083-16.31z" />
<glyph unicode="&#xe903;" glyph-name="openai" d="M950.699 604.971c8.241 24.005 12.998 51.664 12.998 80.433 0 47.572-13.008 92.105-35.662 130.238l0.648-1.178c-45.368 77.922-128.505 129.466-223.681 129.466-19.156 0-37.824-2.088-55.79-6.049l1.711 0.317c-47.567 52.76-116.152 85.78-192.45 85.78-114.154 0-211.044-73.916-245.42-176.498l-0.531-1.826c-73.53-15.449-134.256-60.824-169.925-122.504l-0.656-1.23c-21.993-37.175-34.988-81.929-34.988-129.718 0-66.711 25.323-127.508 66.881-173.302l-0.192 0.215c-8.317-24.099-13.12-51.871-13.12-80.764 0-47.459 12.957-91.891 35.528-129.952l-0.648 1.18c45.418-77.934 128.596-129.478 223.812-129.478 19.185 0 37.882 2.093 55.874 6.062l-1.713-0.317c46.994-52.773 115.126-85.849 190.984-85.849 0.492 0 0.984 0.001 1.476 0.004h-0.076c0.070 0 0.152 0 0.234 0 114.501 0 211.607 74.477 245.518 177.63l0.52 1.826c73.502 15.487 134.201 60.851 169.882 122.504l0.656 1.229c21.667 36.996 34.462 81.466 34.462 128.924 0 66.577-25.18 127.273-66.535 173.084l0.202-0.227zM565.76 66.987c-0.094 0-0.206 0-0.318 0-46.709 0-89.502 16.769-122.686 44.615l0.295-0.241 6.016 3.456 203.904 117.675c10.027 5.973 16.657 16.733 16.725 29.046v287.455l86.187-49.835c0.851-0.438 1.459-1.243 1.619-2.201l0.002-0.018v-238.208c-0.242-105.8-85.944-191.502-191.721-191.744h-0.023zM153.6 243.029c-16.156 27.416-25.7 60.402-25.7 95.616 0 11.654 1.045 23.065 3.047 34.142l-0.174-1.161 6.059-3.627 204.075-117.717c4.764-2.84 10.506-4.519 16.64-4.519s11.876 1.679 16.791 4.602l-0.151-0.083 249.301 143.744v-99.499c-0.039-1.087-0.581-2.041-1.398-2.639l-0.010-0.007-206.507-119.083c-27.489-16.098-60.531-25.604-95.793-25.604-70.625 0-132.343 38.132-165.69 94.93l-0.49 0.903zM99.84 687.104c22.783 38.825 57.774 68.39 99.621 83.755l1.328 0.427v-242.219c-0.002-0.123-0.003-0.269-0.003-0.415 0-12.121 6.598-22.701 16.399-28.344l0.158-0.084 248.107-143.147-86.187-49.835c-0.439-0.237-0.961-0.375-1.515-0.375s-1.076 0.139-1.532 0.384l0.017-0.008-206.080 118.869c-57.716 33.876-95.853 95.629-95.853 166.291 0 35.232 9.481 68.249 26.031 96.64l-0.492-0.914zM807.979 522.624l-248.875 144.512 85.973 49.664c0.439 0.237 0.961 0.375 1.515 0.375s1.076-0.139 1.532-0.384l-0.017 0.008 206.080-119.083c57.784-33.755 95.99-95.477 95.99-166.123 0-81.866-51.305-151.749-123.516-179.25l-1.316-0.44v242.261c-0.385 12.22-7.219 22.762-17.196 28.371l-0.169 0.087zM893.739 651.605l-6.016 3.627-203.691 118.699c-4.795 2.858-10.573 4.548-16.747 4.548s-11.952-1.69-16.899-4.631l0.152 0.084-249.088-143.744v99.541c-0.010 0.087-0.015 0.188-0.015 0.29 0 0.954 0.475 1.798 1.201 2.307l0.009 0.006 206.080 118.912c27.483 16.090 60.517 25.59 95.77 25.59 106.039 0 192-85.961 192-192 0-11.453-1.003-22.671-2.925-33.572l0.169 1.155zM354.432 475.179l-86.187 49.664c-0.861 0.523-1.465 1.394-1.619 2.413l-0.002 0.019v237.525c0.215 105.876 86.094 191.623 192 191.623 46.786 0 89.663-16.734 122.973-44.543l-0.306 0.248-6.059-3.413-203.861-117.675c-10.044-5.964-16.69-16.725-16.768-29.045v-0.011zM401.237 576.085l111.019 64 111.232-64v-127.957l-110.805-64-111.232 64z" />
<glyph unicode="&#xe904;" glyph-name="mic" d="M738 554h72q0-108-75-189t-181-97v-140h-84v140q-106 16-181 97t-75 189h72q0-94 67-155t159-61 159 61 67 155zM460 814v-264q0-20 15-35t37-15q20 0 35 14t15 36l2 264q0 22-16 37t-36 15-36-15-16-37zM512 426q-52 0-90 38t-38 90v256q0 52 38 90t90 38 90-38 38-90v-256q0-52-38-90t-90-38z" />
<glyph unicode="&#xe905;" glyph-name="edit" d="M874.039 874.039c49.987-49.987 49.987-131.032 0-181.019l-472.733-472.733c-20.505-20.505-46.198-35.052-74.331-42.086l-146.624-36.656c-23.436-5.859-44.665 15.37-38.806 38.806l36.656 146.624c7.033 28.133 21.58 53.826 42.086 74.331l472.733 472.733c49.987 49.987 131.032 49.987 181.019 0zM647.76 738.281l-382.219-382.231c-12.303-12.303-21.031-27.719-25.251-44.599l-23.721-94.883 94.883 23.721c16.88 4.22 32.296 12.948 44.599 25.251l382.205 382.244-90.496 90.496zM738.274 828.784l-45.267-45.255 90.496-90.496 45.28 45.241c24.994 24.994 24.994 65.516 0 90.51s-65.516 24.994-90.51 0z" />
<glyph unicode="&#xe906;" glyph-name="warning" d="M1010.432 185.248l-383.968 768c-21.664 43.36-65.952 70.752-114.464 70.752s-92.8-27.392-114.464-70.752l-383.968-768c-19.84-39.68-17.728-86.816 5.6-124.576 23.328-37.696 64.512-60.672 108.864-60.672h767.904c44.384 0 85.568 22.976 108.864 60.672 23.328 37.76 25.44 84.896 5.632 124.576zM575.936 160c0-17.696-14.304-32-32-32h-64c-17.696 0-32 14.304-32 32v64c0 17.696 14.304 32 32 32h64c17.696 0 32-14.304 32-32v-64zM575.936 416c0-17.696-14.304-32-32-32h-64c-17.696 0-32 14.304-32 32v320c0 17.664 14.304 32 32 32h64c17.696 0 32-14.336 32-32v-320z" />
<glyph unicode="&#xe907;" glyph-name="info" d="M512 1024c-281.6 0-512-230.4-512-512s230.4-512 512-512 512 230.4 512 512c0 284.8-230.4 512-512 512zM512 73.6c-243.2 0-438.4 198.4-438.4 438.4 0 243.2 198.4 438.4 438.4 438.4 243.2 0 438.4-198.4 438.4-438.4s-195.2-438.4-438.4-438.4zM512.4 608.7c-22.6 0-40.8-18.3-40.8-40.8v-277.7c0-22.6 18.3-40.8 40.8-40.8 22.6 0 40.8 18.3 40.8 40.8v277.6c0 22.6-18.2 40.9-40.8 40.9zM512.4 776.1c-23-0.9-41.2-19.5-41.6-42.5v-6.5c-0.1-21.2 17-38.4 38.2-38.5 1.1 0 2.3 0 3.4 0.1 22.2 0.8 40 18.6 40.8 40.8v9.8c0.1 20.3-16.2 36.8-36.5 37-1.4 0-2.9-0.1-4.3-0.2z" />
<glyph unicode="&#xe908;" glyph-name="files" d="M843.598 1024h-436.518c-46.642 0-84.542-37.927-84.542-84.534v-28.768h-28.791c-46.609 0-84.575-37.892-84.575-84.532v-28.867h-28.725c-46.609 0-84.575-37.934-84.575-84.536v-628.221c0-46.606 37.969-84.544 84.575-84.544h436.487c46.642 0 84.567 37.938 84.567 84.544v28.791h28.768c46.609 0 84.565 37.931 84.565 84.573v28.754h28.768c46.609 0 84.532 37.936 84.532 84.544v628.262c-0.004 46.606-37.927 84.534-84.536 84.534zM634.008 84.542c0-9.41-7.676-17.049-17.074-17.049h-436.487c-9.406 0-17.082 7.639-17.082 17.049v628.223c0 9.4 7.676 17.043 17.082 17.043h436.487c9.4 0 17.074-7.643 17.074-17.043v-628.223zM747.306 197.906c0-9.441-7.631-17.084-17.039-17.084h-28.768v531.943c0 46.602-37.923 84.536-84.567 84.536h-340.269v28.865c0 9.441 7.676 17.072 17.084 17.072h436.52c9.408 0 17.039-7.631 17.039-17.072v-628.26zM860.639 311.204c0-9.406-7.631-17.039-17.039-17.039h-28.768v532.001c0 46.642-37.956 84.532-84.565 84.532h-340.273v28.768c0 9.406 7.676 17.037 17.086 17.037h436.518c9.408 0 17.039-7.631 17.039-17.037v-628.262zM283.898 553.598h175.553c18.623 0 33.773 15.105 33.773 33.763 0 18.641-15.15 33.728-33.773 33.728h-175.553c-18.61 0-33.765-15.087-33.765-33.728 0.002-18.66 15.154-33.763 33.765-33.763zM513.473 486.024h-229.574c-18.61 0-33.765-15.109-33.765-33.759 0-18.648 15.152-33.734 33.765-33.734h229.574c18.656 0 33.73 15.087 33.73 33.734 0 18.65-15.074 33.759-33.73 33.759zM513.473 350.977h-229.574c-18.61 0-33.765-15.074-33.765-33.73 0-18.645 15.152-33.73 33.765-33.73h229.574c18.656 0 33.73 15.084 33.73 33.73 0 18.654-15.074 33.73-33.73 33.73zM513.473 215.956h-229.574c-18.61 0-33.765-15.072-33.765-33.726 0-18.648 15.152-33.765 33.765-33.765h229.574c18.656 0 33.73 15.117 33.73 33.765 0 18.654-15.074 33.726-33.73 33.726z" />
<glyph unicode="&#xe909;" glyph-name="tag-line" horiz-adv-x="896" d="M176 736c0 26.6 21.5 48 48 48 26.6 0 48-21.4 48-48s-21.4-48-48-48c-26.5 0-48 21.4-48 48zM0.001 864c0 53.020 42.979 96 95.999 96h299c34 0 66.4-13.48 90.4-37.5l352-351.9c50-50 50-131.2 0-181.2l-266.8-266.8c-50-50-131.2-50-181.2 0l-351.9 352c-24.014 24-37.5 56.4-37.5 90.4l0.001 299zM82.74 519.8l352.060-352c25-25 65.4-25 90.4 0l267 267c25 25 25 65.4 0 90.4l-352 352.060c-12 12-30 18.74-45.2 18.74h-299c-17.68 0-32-14.32-32-32v-299c0-15.2 6.74-33.2 18.74-45.2v0zM82.74 519.8l-45.24-45.2z" />
<glyph unicode="&#xe90a;" glyph-name="chatbot" d="M894.2 1023.992h-768c-70.5 0-128-57.5-128-126.2v-574.2c0-70.5 57.5-126.2 128-126.2h192v-167.98c0-19.676 22.060-31.1 38.24-19.4l249.8 187.38h288c70.5 0 128 57.5 128 126.2v574.208c-0.040 68.7-55.84 126.192-128.040 126.192zM960 320c0-35.2-28.8-64-64-64h-288.2c-13.856 0-27.34-4.496-38.42-12.812l-185.38-139.188v120c0 17.676-14.328 32-32 32h-224c-35.2 0-64 28.8-64 64v576c0 35.2 28.8 64 64 64h768c35.2 0 64-28.8 64-64v-576zM639.8 656c26.5 0 48 21.5 48 48s-21.5 48-48 48-48-21.5-48-48 21.6-48 48-48zM663.4 517.4c-37.6-44.2-92.8-69.4-151.6-69.4s-114 25.2-151.4 69.2c-11.6 13.2-31.8 14.8-45 3.6-13.75-11.5-15-31.5-3.75-45.24 49.76-58 122.88-91.48 200.4-91.48s150.36 33.48 200.4 91.74c11.5 13.5 9.75 33.76-3.75 45.24-13.3 11.34-33.5 9.74-45.3-3.66zM383.8 656c26.5 0 48 21.5 48 48s-21.5 48-48 48-48-21.5-48-48 21.6-48 48-48z" />
<glyph unicode="&#xe90b;" glyph-name="arrows-out" d="M864 832v-192c0-17.673-14.327-32-32-32s-32 14.327-32 32v0 114.76l-201.36-201.4c-5.794-5.794-13.799-9.378-22.64-9.378-17.683 0-32.018 14.335-32.018 32.018 0 8.841 3.584 16.846 9.378 22.64l201.4 201.36h-114.76c-17.673 0-32 14.327-32 32s14.327 32 32 32v0h192c17.673 0 32-14.327 32-32v0zM425.36 470.64l-201.36-201.4v114.76c0 17.673-14.327 32-32 32s-32-14.327-32-32v0-192c0-17.673 14.327-32 32-32v0h192c17.673 0 32 14.327 32 32s-14.327 32-32 32v0h-114.76l201.4 201.36c5.794 5.794 9.378 13.799 9.378 22.64 0 17.683-14.335 32.018-32.018 32.018-8.841 0-16.846-3.584-22.64-9.378v0z" />
<glyph unicode="&#xe90c;" glyph-name="sidebar" d="M864 864h-704c-35.346 0-64-28.654-64-64v0-576c0-35.346 28.654-64 64-64v0h704c35.346 0 64 28.654 64 64v0 576c0 35.346-28.654 64-64 64v0zM160 800h160v-576h-160zM864 224h-480v576h480v-576z" />
<glyph unicode="&#xe90d;" glyph-name="arrows-in" d="M854.64 809.36l-201.4-201.36h114.76c17.673 0 32-14.327 32-32s-14.327-32-32-32v0h-192c-17.673 0-32 14.327-32 32v0 192c0 17.673 14.327 32 32 32s32-14.327 32-32v0-114.76l201.36 201.4c5.794 5.794 13.799 9.378 22.64 9.378 17.683 0 32.018-14.335 32.018-32.018 0-8.841-3.584-16.846-9.378-22.64v0zM448 480h-192c-17.673 0-32-14.327-32-32s14.327-32 32-32v0h114.76l-201.4-201.36c-5.794-5.794-9.378-13.799-9.378-22.64 0-17.683 14.335-32.018 32.018-32.018 8.841 0 16.846 3.584 22.64 9.378v0l201.36 201.4v-114.76c0-17.673 14.327-32 32-32s32 14.327 32 32v0 192c0 17.673-14.327 32-32 32v0z" />
<glyph unicode="&#xe90e;" glyph-name="call" d="M812.8 396.8c-44.8 44.8-112 44.8-156.8 0l-64-64h-3.2c-3.2 0-6.4 3.2-9.6 3.2-6.4 3.2-16 6.4-19.2 12.8-60.8 38.4-121.6 92.8-172.8 156.8-25.6 32-41.6 57.6-54.4 83.2 16 12.8 32 28.8 44.8 44.8 3.2 3.2 3.2 3.2 6.4 6.4s6.4 9.6 12.8 12.8c48 48 48 108.8 0 156.8l-76.8 76.8c-12.8 12.8-28.8 28.8-41.6 38.4-22.4 22.4-48 35.2-76.8 35.2s-54.4-12.8-76.8-35.2l-73.6-73.6c-28.8-28.8-44.8-64-48-102.4-3.2-51.2 6.4-102.4 28.8-160 35.2-96 86.4-182.4 163.2-275.2 92.8-112 204.8-198.4 332.8-262.4 67.2-32 131.2-51.2 192-54.4h12.8c51.2 0 96 19.2 128 54.4l3.2 6.4c6.4 6.4 12.8 16 22.4 22.4 3.2 3.2 9.6 9.6 12.8 12.8l28.8 28.8c22.4 22.4 35.2 51.2 32 80 0 28.8-12.8 54.4-35.2 76.8l-112 118.4zM99.2 620.8c-19.2 51.2-25.6 89.6-25.6 128 3.2 25.6 12.8 41.6 28.8 57.6l73.6 73.6c16 16 38.4 16 54.4 0 12.8-12.8 25.6-25.6 38.4-41.6 3.2-3.2 6.4-6.4 9.6-9.6s6.4-6.4 9.6-9.6l57.6-57.6c9.6-9.6 16-19.2 16-25.6s-6.4-19.2-16-28.8l-19.2-19.2c-16-19.2-32-35.2-51.2-51.2-3.2 0-6.4-3.2-6.4-6.4-12.8-16-16-32-9.6-51.2v-3.2c16-35.2 35.2-67.2 70.4-115.2 60.8-73.6 121.6-131.2 192-172.8 6.4-6.4 51.2-28.8 51.2-28.8 6.4-3.2 16-3.2 22.4-3.2 19.2 0 32 12.8 38.4 16l73.6 73.6c9.6 9.6 19.2 16 28.8 16s19.2-6.4 25.6-16l118.4-118.4c19.2-19.2 19.2-35.2 0-57.6-3.2-3.2-6.4-6.4-6.4-6.4-6.4-6.4-12.8-12.8-19.2-19.2l-41.6-41.6c-19.2-22.4-41.6-32-73.6-32h-9.6c-60.8 3.2-118.4 28.8-163.2 51.2-118.4 54.4-224 137.6-313.6 243.2v0c-76.8 92.8-124.8 172.8-153.6 256v0z" />
<glyph unicode="&#xe90f;" glyph-name="microphone-mute" horiz-adv-x="805" d="M154.857 484l-57.714-57.714c-15.429 37.714-24 78.857-24 122.286v73.143c0 20 16.571 36.571 36.571 36.571s36.571-16.571 36.571-36.571v-73.143c0-22.286 3.429-44 8.571-64.571zM791.429 828l-206.286-206.286v-73.143c0-100.571-82.286-182.857-182.857-182.857-21.714 0-42.857 4-62.286 10.857l-54.857-54.857c34.857-18.286 74.857-29.143 117.143-29.143 141.143 0 256 114.857 256 256v73.143c0 20 16.571 36.571 36.571 36.571s36.571-16.571 36.571-36.571v-73.143c0-169.143-128-308.571-292.571-326.857v-75.429h146.286c20 0 36.571-16.571 36.571-36.571s-16.571-36.571-36.571-36.571h-365.714c-20 0-36.571 16.571-36.571 36.571s16.571 36.571 36.571 36.571h146.286v75.429c-48.571 5.143-94.286 21.714-134.286 46.286l-145.143-145.143c-7.429-7.429-18.857-7.429-26.286 0l-46.857 46.857c-7.429 7.429-7.429 18.857 0 26.286l705.143 705.143c7.429 7.429 18.857 7.429 26.286 0l46.857-46.857c7.429-7.429 7.429-18.857 0-26.286zM574.286 903.429l-354.857-354.857v292.571c0 100.571 82.286 182.857 182.857 182.857 78.857 0 146.286-50.857 172-120.571z" />
<glyph unicode="&#xe915;" glyph-name="automation" d="M1011.2 988.8c-22.4 32-64 44.8-99.2 28.8l-636.8-262.4c-32-12.8-51.2-44.8-51.2-76.8 0-35.2 22.4-64 54.4-73.6l243.2-83.2 83.2-243.2c12.8-32 41.6-54.4 76.8-54.4 32 0 60.8 19.2 73.6 51.2l262.4 636.8c9.6 25.6 6.4 54.4-6.4 76.8zM672 304l-89.6 259.2c-3.2 9.6-12.8 19.2-22.4 22.4l-259.2 89.6c-3.2 0-6.4 3.2-6.4 9.6s3.2 9.6 6.4 9.6l636.8 262.4c0 0 3.2 0 3.2 0 3.2 0 6.4-3.2 6.4-3.2 3.2-3.2 3.2-6.4 0-9.6l-262.4-636.8c0 0-3.2-6.4-9.6-6.4 3.2-3.2-3.2-3.2-3.2 3.2zM441.6 406.4c0 9.6-3.2 19.2-9.6 25.6s-16 9.6-25.6 9.6c0 0 0 0 0 0-9.6 0-19.2-3.2-25.6-9.6l-352-352c-6.4-6.4-9.6-16-9.6-25.6s3.2-19.2 9.6-25.6c6.4-6.4 16-9.6 25.6-9.6s19.2 3.2 25.6 9.6l352 352c6.4 6.4 9.6 16 9.6 25.6zM60.8 304l128 128c6.4 6.4 9.6 16 9.6 25.6s-3.2 19.2-9.6 25.6c-6.4 6.4-16 9.6-25.6 9.6 0 0 0 0 0 0-9.6 0-19.2-3.2-25.6-9.6l-128-128c-6.4-6.4-9.6-16-9.6-25.6s3.2-19.2 9.6-25.6c6.4-6.4 16-9.6 25.6-9.6 9.6-3.2 19.2 0 25.6 9.6zM454.4 201.6c0 0 0 0 0 0-9.6 0-19.2-3.2-25.6-9.6l-128-128c-6.4-6.4-9.6-16-9.6-25.6s3.2-19.2 9.6-25.6c6.4-6.4 16-9.6 25.6-9.6s19.2 3.2 25.6 9.6l128 128c6.4 6.4 9.6 16 9.6 25.6s-3.2 19.2-9.6 25.6c-6.4 6.4-16 9.6-25.6 9.6z" />
<glyph unicode="&#xe91c;" glyph-name="sms" d="M876.8 988.8h-732.8c-83.2 0-147.2-64-147.2-147.2v-448c0-76.8 60.8-140.8 137.6-144v-208l300.8 208h438.4c80 0 147.2 67.2 147.2 147.2v448c3.2 76.8-60.8 144-144 144zM211.2 176v144h-67.2c-41.6 0-73.6 32-73.6 73.6v448c0 41.6 32 73.6 73.6 73.6h732.8c41.6 0 73.6-32 73.6-73.6v-448c0-41.6-32-73.6-73.6-73.6h-460.8l-204.8-144zM336 646.4c-16 9.6-38.4 16-60.8 16-32 3.2-35.2 9.6-35.2 16 0 9.6 12.8 16 32 16s35.2-9.6 38.4-16l3.2-6.4 44.8 22.4-3.2 9.6c-16 28.8-44.8 44.8-86.4 44.8s-86.4-22.4-86.4-67.2c0-51.2 44.8-64 86.4-70.4 25.6-3.2 38.4-9.6 38.4-19.2 0-19.2-28.8-19.2-35.2-19.2-22.4 0-41.6 9.6-48 25.6l-3.2 9.6-48-25.6 3.2-9.6c16-35.2 44.8-54.4 92.8-54.4h3.2c25.6 0 48 6.4 64 16 19.2 12.8 28.8 32 28.8 57.6 0 22.4-9.6 41.6-28.8 54.4zM515.2 662.4l-57.6 76.8h-57.6v-217.6h57.6v124.8l48-67.2h16l51.2 67.2v-124.8h57.6v217.6h-57.6zM819.2 646.4c-16 9.6-38.4 16-60.8 16-32 3.2-35.2 9.6-35.2 16 0 9.6 12.8 16 32 16s35.2-9.6 38.4-16l3.2-6.4 44.8 25.6-3.2 9.6c-16 28.8-44.8 44.8-86.4 44.8s-86.4-22.4-86.4-67.2c0-51.2 44.8-64 86.4-70.4 25.6-3.2 38.4-9.6 38.4-19.2 0-19.2-28.8-19.2-35.2-19.2-22.4 0-41.6 9.6-48 25.6l-3.2 9.6-48-25.6 3.2-9.6c16-35.2 44.8-54.4 89.6-54.4v0h6.4c25.6 0 48 6.4 64 16 19.2 12.8 28.8 32 28.8 57.6 0 19.2-9.6 38.4-28.8 51.2z" />
<glyph unicode="&#xe942;" glyph-name="phone-call-1" d="M704 384c-64-64-64-128-128-128s-128 64-192 128-128 128-128 192 64 64 128 128-128 256-192 256-192-192-192-192c0-128 131.5-387.5 256-512s384-256 512-256c0 0 192 128 192 192s-192 256-256 192z" />
<glyph unicode="&#xe943;" glyph-name="phone-call-2" d="M1017.378 448.006c8.004-55.482 13.216-131.392-11.664-160.446-41.142-48.044-301.712-48.044-301.712 48.042 0 48.398 42.856 80.134 1.712 128.178-40.472 47.262-113.026 48.030-193.714 48.042-80.686-0.012-153.242-0.78-193.714-48.042-41.142-48.046 1.714-79.78 1.714-128.178 0-96.086-260.57-96.086-301.714-48.044-24.878 29.054-19.668 104.964-11.662 160.446 6.16 37.038 21.724 76.996 71.548 127.994 0 0.002 0.002 0.002 0.002 0.004 74.738 69.742 187.846 126.738 429.826 127.968v0.030c1.344 0 2.664-0.010 4-0.014 1.338 0.004 2.656 0.014 4 0.014v-0.028c241.98-1.23 355.088-58.226 429.826-127.968 0.002-0.002 0.002-0.004 0.002-0.004 49.824-50.996 65.39-90.954 71.55-127.994z" />
<glyph unicode="&#xf02b;" glyph-name="tag" horiz-adv-x="866" d="M256 768c0 40.571-32.571 73.143-73.143 73.143s-73.143-32.571-73.143-73.143 32.571-73.143 73.143-73.143 73.143 32.571 73.143 73.143zM865.714 438.857c0-19.429-8-38.286-21.143-51.429l-280.571-281.143c-13.714-13.143-32.571-21.143-52-21.143s-38.286 8-51.429 21.143l-408.571 409.143c-29.143 28.571-52 84-52 124.571v237.714c0 40 33.143 73.143 73.143 73.143h237.714c40.571 0 96-22.857 125.143-52l408.571-408c13.143-13.714 21.143-32.571 21.143-52z" />
<glyph unicode="&#xf04b;" glyph-name="play" horiz-adv-x="809" d="M790.857 494.286l-758.857-421.714c-17.714-9.714-32-1.143-32 18.857v841.143c0 20 14.286 28.571 32 18.857l758.857-421.714c17.714-9.714 17.714-25.714 0-35.429z" />
<glyph unicode="&#xf04c;" glyph-name="pause" horiz-adv-x="878" d="M877.714 914.286v-804.571c0-20-16.571-36.571-36.571-36.571h-292.571c-20 0-36.571 16.571-36.571 36.571v804.571c0 20 16.571 36.571 36.571 36.571h292.571c20 0 36.571-16.571 36.571-36.571zM365.714 914.286v-804.571c0-20-16.571-36.571-36.571-36.571h-292.571c-20 0-36.571 16.571-36.571 36.571v804.571c0 20 16.571 36.571 36.571 36.571h292.571c20 0 36.571-16.571 36.571-36.571z" />
<glyph unicode="&#xf130;" glyph-name="microphone" horiz-adv-x="658" d="M658.286 621.714v-73.143c0-169.143-128-308.571-292.571-326.857v-75.429h146.286c20 0 36.571-16.571 36.571-36.571s-16.571-36.571-36.571-36.571h-365.714c-20 0-36.571 16.571-36.571 36.571s16.571 36.571 36.571 36.571h146.286v75.429c-164.571 18.286-292.571 157.714-292.571 326.857v73.143c0 20 16.571 36.571 36.571 36.571s36.571-16.571 36.571-36.571v-73.143c0-141.143 114.857-256 256-256s256 114.857 256 256v73.143c0 20 16.571 36.571 36.571 36.571s36.571-16.571 36.571-36.571zM512 841.143v-292.571c0-100.571-82.286-182.857-182.857-182.857s-182.857 82.286-182.857 182.857v292.571c0 100.571 82.286 182.857 182.857 182.857s182.857-82.286 182.857-182.857z" />
</font>
</defs>
</svg>
